Trances (1981) [Criterion Collection]

Trances (1981) [Criterion Collection]

Martin Scorsese’s World Cinema Project (2013). Trances (1981) [Criterion Collection]
BDRip 1080p | MKV | AVC, 1792x1080, ~ 4.0 Mbps | 1hr 29mn | 2.75 GB | Arabic (العربية): AC3, 1 ch, 448 kbps
BDRip 720p | MKV | AVC, 1192x720, ~ 2.9 Mbps | 1hr 29mn | 1.95 MB | Arabic (العربية): AC3, 1 ch, 256 kbps
Subtitles: English
Genre: Documentary, Music
IMDB Rating: 6.8/10 (324 votes)


Director: Ahmed El Maanouni
Writers: Ahmed El Maanouni (screenplay)
Stars: Larbi Batma, Nass-El Ghiwane, Abderrahman Paco

The group's "Trances" are our equivalent of "soul music", our irrationality. I followed the example of the Nass El Ghiwane themselves: I went back to the roots. They draw their music from the last thousand years of Moroccan and African history. the film sets out to reveal and emphasize this heritage. I chose the music of the Saharan brotherhood, The Gnawas, and the verses of the famous poet El Mejdoub, to underline the trances.

Extras:
- None




General
Unique ID : 233796140221427880484003365337619756159 (0xAFE37FACFEFE43F8AC16324A4B6FF47F)
Complete name : F:\MScors2es.WrldCnmPrjct.V3.Trances.81.Cr.1p\MScors2es.WrldCnmPrjct.V3.Trances.81.Cr.1p.mkv
Format : Matroska
Format version : Version 4 / Version 2
File size : 2.75 GiB
Duration : 1 h 29 min
Overall bit rate : 4 402 kb/s
Movie name : Release RSU75
Encoded date : UTC 2019-03-31 06:21:02
Writing application : mkvmerge v6.6.0 ('The Edge Of The In Between') built on Dec 1 2013 17:55:00
Writing library : libebml v1.3.0 + libmatroska v1.4.1

Video
ID : 1
Format : AVC
Format/Info : Advanced Video Codec
Format profile : High@L4.1
Format settings : CABAC / 4 Ref Frames
Format settings, CABAC : Yes
Format settings, ReFrames : 4 frames
Codec ID : V_MPEG4/ISO/AVC
Duration : 1 h 29 min
Bit rate : 4 000 kb/s
Width : 1 792 pixels
Height : 1 080 pixels
Display aspect ratio : 5:3
Frame rate mode : Constant
Frame rate : 23.976 (23976/1000) FPS
Color space : YUV
Chroma subsampling : 4:2:0
Bit depth : 8 bits
Scan type : Progressive
Bits/(Pixel*Frame) : 0.086
Stream size : 2.42 GiB (88%)
Writing library : x264 core 148 r2643 5c65704
Encoding settings : cabac=1 / ref=4 / deblock=1:0:0 / analyse=0x3:0x113 / me=umh / subme=8 / psy=1 / psy_rd=1.00:0.00 / mixed_ref=1 / me_range=24 / chroma_me=1 / trellis=1 / 8x8dct=1 / cqm=0 / deadzone=21,11 / fast_pskip=1 / chroma_qp_offset=-2 / threads=3 / lookahead_threads=1 / sliced_threads=0 / nr=0 / decimate=1 / interlaced=0 / bluray_compat=0 / constrained_intra=0 / bframes=3 / b_pyramid=0 / b_adapt=2 / b_bias=0 / direct=3 / weightb=1 / open_gop=0 / weightp=2 / keyint=250 / keyint_min=25 / scenecut=40 / intra_refresh=0 / rc_lookahead=40 / rc=abr / mbtree=1 / bitrate=4000 / ratetol=1.0 / qcomp=0.60 / qpmin=10 / qpmax=51 / qpstep=4 / ip_ratio=1.41 / aq=1:1.00
Language : English
Default : Yes
Forced : No

Audio
ID : 2
Format : AC-3
Format/Info : Audio Coding 3
Commercial name : Dolby Digital
Codec ID : A_AC3
Duration : 1 h 29 min
Bit rate mode : Constant
Bit rate : 448 kb/s
Channel(s) : 1 channel
Channel layout : C
Sampling rate : 48.0 kHz
Frame rate : 31.250 FPS (1536 SPF)
Bit depth : 16 bits
Compression mode : Lossy
Stream size : 287 MiB (10%)
Language : Arabic
Service kind : Complete Main
Default : Yes
Forced : No

Text
ID : 3
Format : PGS
Muxing mode : zlib
Codec ID : S_HDMV/PGS
Codec ID/Info : Picture based subtitle format used on BDs/HD-DVDs
Language : English
Default : Yes
Forced : No

Menu
00:00:00.000 : en:Chapter 01
00:09:05.169 : en:Chapter 02
00:13:59.255 : en:Chapter 03
00:17:58.535 : en:Chapter 04
00:20:47.204 : en:Chapter 05
00:24:39.019 : en:Chapter 06
00:30:26.199 : en:Chapter 07
00:37:14.774 : en:Chapter 08
00:43:03.455 : en:Chapter 09
00:50:41.038 : en:Chapter 10
00:54:53.999 : en:Chapter 11
01:00:30.043 : en:Chapter 12
01:04:35.788 : en:Chapter 13
01:09:37.548 : en:Chapter 14
01:12:19.251 : en:Chapter 15
01:17:03.785 : en:Chapter 16
01:21:23.753 : en:Chapter 17






General
Unique ID : 216805609574663500585524588931689893957 (0xA31B3DD6D126B75D81C0580B597E5045)
Complete name : F:\MScors2es.WrldCnmPrjct.V3.Trances.81.Cr.7p\MScors2es.WrldCnmPrjct.V3.Trances.81.Cr.7p.mkv
Format : Matroska
Format version : Version 4 / Version 2
File size : 1.95 GiB
Duration : 1 h 29 min
Overall bit rate : 3 123 kb/s
Movie name : Release RSU75
Encoded date : UTC 2019-03-31 06:26:02
Writing application : mkvmerge v6.6.0 ('The Edge Of The In Between') built on Dec 1 2013 17:55:00
Writing library : libebml v1.3.0 + libmatroska v1.4.1

Video
ID : 1
Format : AVC
Format/Info : Advanced Video Codec
Format profile : High@L4.1
Format settings : CABAC / 4 Ref Frames
Format settings, CABAC : Yes
Format settings, ReFrames : 4 frames
Codec ID : V_MPEG4/ISO/AVC
Duration : 1 h 29 min
Bit rate : 2 900 kb/s
Width : 1 192 pixels
Height : 720 pixels
Display aspect ratio : 5:3
Frame rate mode : Constant
Frame rate : 23.976 (23976/1000) FPS
Color space : YUV
Chroma subsampling : 4:2:0
Bit depth : 8 bits
Scan type : Progressive
Bits/(Pixel*Frame) : 0.141
Stream size : 1.76 GiB (90%)
Writing library : x264 core 148 r2643 5c65704
Encoding settings : cabac=1 / ref=4 / deblock=1:0:0 / analyse=0x3:0x113 / me=umh / subme=8 / psy=1 / psy_rd=1.00:0.00 / mixed_ref=1 / me_range=24 / chroma_me=1 / trellis=1 / 8x8dct=1 / cqm=0 / deadzone=21,11 / fast_pskip=1 / chroma_qp_offset=-2 / threads=3 / lookahead_threads=1 / sliced_threads=0 / nr=0 / decimate=1 / interlaced=0 / bluray_compat=0 / constrained_intra=0 / bframes=3 / b_pyramid=0 / b_adapt=2 / b_bias=0 / direct=3 / weightb=1 / open_gop=0 / weightp=2 / keyint=250 / keyint_min=25 / scenecut=40 / intra_refresh=0 / rc_lookahead=40 / rc=abr / mbtree=1 / bitrate=2900 / ratetol=1.0 / qcomp=0.60 / qpmin=10 / qpmax=51 / qpstep=4 / ip_ratio=1.41 / aq=1:1.00
Language : English
Default : Yes
Forced : No

Audio
ID : 2
Format : AC-3
Format/Info : Audio Coding 3
Commercial name : Dolby Digital
Codec ID : A_AC3
Duration : 1 h 29 min
Bit rate mode : Constant
Bit rate : 256 kb/s
Channel(s) : 1 channel
Channel layout : C
Sampling rate : 48.0 kHz
Frame rate : 31.250 FPS (1536 SPF)
Bit depth : 16 bits
Compression mode : Lossy
Stream size : 164 MiB (8%)
Language : Arabic
Service kind : Complete Main
Default : Yes
Forced : No

Text
ID : 3
Format : PGS
Muxing mode : zlib
Codec ID : S_HDMV/PGS
Codec ID/Info : Picture based subtitle format used on BDs/HD-DVDs
Language : English
Default : Yes
Forced : No

Menu
00:00:00.000 : en:Chapter 01
00:09:05.169 : en:Chapter 02
00:13:59.255 : en:Chapter 03
00:17:58.535 : en:Chapter 04
00:20:47.204 : en:Chapter 05
00:24:39.019 : en:Chapter 06
00:30:26.199 : en:Chapter 07
00:37:14.774 : en:Chapter 08
00:43:03.455 : en:Chapter 09
00:50:41.038 : en:Chapter 10
00:54:53.999 : en:Chapter 11
01:00:30.043 : en:Chapter 12
01:04:35.788 : en:Chapter 13
01:09:37.548 : en:Chapter 14
01:12:19.251 : en:Chapter 15
01:17:03.785 : en:Chapter 16
01:21:23.753 : en:Chapter 17




Screenshots 1080p (click to enlarge to original size):

Trances (1981) [Criterion Collection]

Trances (1981) [Criterion Collection]

Trances (1981) [Criterion Collection]


Trances (1981) [Criterion Collection]



Screenshots 720p (click to enlarge to original size):

Trances (1981) [Criterion Collection]




–––––––––––––––––––––––––––––––––––––––-
>>> "Criterion Collection" <<<OR >>> "Martin Scorsese’s World Cinema Project" <<<OR >>> "BDRip" <<<
–––––––––––––––––––––––––––––––––––––––-
>>> Visit Blog RSU75 Here <<<
–––––––––––––––––––––––––––––––––––––––-