Lucía (1968) [Criterion Collection]

Lucía (1968) [Criterion Collection]

Martin Scorsese's World Cinema Project № 3: Lucía (1968) [Criterion Collection, Spine #1050]
BDRip 1080p | MKV | AVC 1792x1080, ~ 4.0 Mbps | 2hr 41mn | 4.98 GB | Spanish (Español): AC3, 1 ch, 448 kbps
BDRip 720p | MKV | AVC 1192x720, ~ 2.9 Mbps | 2hr 41mn | 3.54 GB | Spanish (Español): AC3, 1 ch, 256 kbps
Subtitles: English
Genre: Drama



Director: Humberto Solás
Writer: Julio García Espinosa, Nelson Rodríguez
Stars: Raquel Revuelta, Eslinda Núñez, Adela Legrá

A formally dazzling landmark of Cuban cinema by Humberto Solás, the operatic epic Lucía recounts the history of a changing country through the eyes of three eponymous women. In 1895, Lucía is a tragic noblewoman who inadvertently betrays her country for love. In 1932, she is a member of the bourgeoisie drawn into the workers’ uprising against the dictator. And in the postrevolutionary 1960s, she is a rural newlywed struggling against patriarchal oppression. Shot in an array of distinct, evocative visual styles, Solás’s sprawling triptych is a vital document of radical progress.

Extras:
- None




General
Unique ID : 230118897759010910782960124689602047669 (0xAD1F499FEA063152ACAF911A8A07EEB5)
Complete name : F:\Lucía.1968.Cr.1p\Lucía.1968.Cr.1p.mkv
Format : Matroska
Format version : Version 4
File size : 4.98 GiB
Duration : 2 h 41 min
Overall bit rate : 4 421 kb/s
Movie name : Release RSU75
Encoded date : UTC 2020-10-11 11:48:46
Writing application : mkvmerge v6.6.0 ('The Edge Of The In Between') built on Dec 1 2013 17:55:00
Writing library : libebml v1.3.0 + libmatroska v1.4.1

Video
ID : 1
Format : AVC
Format/Info : Advanced Video Codec
Format profile : High@L4.1
Format settings : CABAC / 4 Ref Frames
Format settings, CABAC : Yes
Format settings, Reference fra : 4 frames
Codec ID : V_MPEG4/ISO/AVC
Duration : 2 h 41 min
Bit rate : 4 000 kb/s
Width : 1 792 pixels
Height : 1 080 pixels
Display aspect ratio : 5:3
Frame rate mode : Constant
Frame rate : 23.976 (23976/1000) FPS
Color space : YUV
Chroma subsampling : 4:2:0
Bit depth : 8 bits
Scan type : Progressive
Bits/(Pixel*Frame) : 0.086
Stream size : 4.38 GiB (88%)
Writing library : x264 core 148 r2643 5c65704
Encoding settings : cabac=1 / ref=4 / deblock=1:0:0 / analyse=0x3:0x113 / me=umh / subme=8 / psy=1 / psy_rd=1.00:0.00 / mixed_ref=1 / me_range=24 / chroma_me=1 / trellis=1 / 8x8dct=1 / cqm=0 / deadzone=21,11 / fast_pskip=1 / chroma_qp_offset=-2 / threads=3 / lookahead_threads=1 / sliced_threads=0 / nr=0 / decimate=1 / interlaced=0 / bluray_compat=0 / constrained_intra=0 / bframes=3 / b_pyramid=0 / b_adapt=2 / b_bias=0 / direct=3 / weightb=1 / open_gop=0 / weightp=2 / keyint=250 / keyint_min=25 / scenecut=40 / intra_refresh=0 / rc_lookahead=40 / rc=abr / mbtree=1 / bitrate=4000 / ratetol=1.0 / qcomp=0.60 / qpmin=10 / qpmax=51 / qpstep=4 / ip_ratio=1.41 / aq=1:1.00
Language : English
Default : Yes
Forced : No
Duration_Source : General_Duration

Audio
ID : 2
Format : AC-3
Format/Info : Audio Coding 3
Commercial name : Dolby Digital
Codec ID : A_AC3
Duration : 2 h 41 min
Bit rate mode : Constant
Bit rate : 448 kb/s
Channel(s) : 1 channel
Channel layout : C
Sampling rate : 44.1 kHz
Frame rate : 28.711 FPS (1536 SPF)
Compression mode : Lossy
Stream size : 517 MiB (10%)
Title : Mono
Language : Spanish
Service kind : Complete Main
Default : Yes
Forced : No
Duration_Source : General_Duration

Text
ID : 3
Format : PGS
Muxing mode : zlib
Codec ID : S_HDMV/PGS
Codec ID/Info : Picture based subtitle format used on BDs/HD-DVDs
Language : English
Default : Yes
Forced : No

Menu
00:00:00.000 : en:Chapter 01
00:05:41.883 : en:Chapter 02
00:14:51.724 : en:Chapter 03
00:17:37.264 : en:Chapter 04
00:24:02.149 : en:Chapter 05
00:26:52.193 : en:Chapter 06
00:32:44.629 : en:Chapter 07
00:36:05.329 : en:Chapter 08
00:38:15.626 : en:Chapter 09
00:46:41.632 : en:Chapter 10
00:49:52.447 : en:Chapter 11
00:52:38.113 : en:Chapter 12
01:04:44.213 : en:Chapter 13
01:08:48.457 : en:Chapter 14
01:12:47.988 : en:Chapter 15
01:19:47.032 : en:Chapter 16
01:22:49.172 : en:Chapter 17
01:26:35.106 : en:Chapter 18
01:35:27.972 : en:Chapter 19
01:39:08.692 : en:Chapter 20
01:42:27.683 : en:Chapter 21
01:48:59.324 : en:Chapter 22
01:56:19.555 : en:Chapter 23
02:02:43.397 : en:Chapter 24
02:09:08.073 : en:Chapter 25
02:13:04.559 : en:Chapter 26
02:17:25.654 : en:Chapter 27
02:25:51.367 : en:Chapter 28
02:32:02.822 : en:Chapter 29





General
Unique ID : 212125338604523915577470282981967122227 (0x9F95DAAA1C2C8051A4B1329E2D53CF33)
Complete name : F:\Lucía.1968.Cr.7p\Lucía.1968.Cr.7p.mkv
Format : Matroska
Format version : Version 4
File size : 3.54 GiB
Duration : 2 h 41 min
Overall bit rate : 3 140 kb/s
Movie name : Release RSU75
Encoded date : UTC 2020-10-11 10:45:09
Writing application : mkvmerge v6.6.0 ('The Edge Of The In Between') built on Dec 1 2013 17:55:00
Writing library : libebml v1.3.0 + libmatroska v1.4.1

Video
ID : 1
Format : AVC
Format/Info : Advanced Video Codec
Format profile : High@L4.1
Format settings : CABAC / 4 Ref Frames
Format settings, CABAC : Yes
Format settings, Reference fra : 4 frames
Codec ID : V_MPEG4/ISO/AVC
Duration : 2 h 41 min
Bit rate : 2 900 kb/s
Width : 1 192 pixels
Height : 720 pixels
Display aspect ratio : 5:3
Frame rate mode : Constant
Frame rate : 23.976 (23976/1000) FPS
Color space : YUV
Chroma subsampling : 4:2:0
Bit depth : 8 bits
Scan type : Progressive
Bits/(Pixel*Frame) : 0.141
Stream size : 3.18 GiB (90%)
Writing library : x264 core 148 r2643 5c65704
Encoding settings : cabac=1 / ref=4 / deblock=1:0:0 / analyse=0x3:0x113 / me=umh / subme=8 / psy=1 / psy_rd=1.00:0.00 / mixed_ref=1 / me_range=24 / chroma_me=1 / trellis=1 / 8x8dct=1 / cqm=0 / deadzone=21,11 / fast_pskip=1 / chroma_qp_offset=-2 / threads=3 / lookahead_threads=1 / sliced_threads=0 / nr=0 / decimate=1 / interlaced=0 / bluray_compat=0 / constrained_intra=0 / bframes=3 / b_pyramid=0 / b_adapt=2 / b_bias=0 / direct=3 / weightb=1 / open_gop=0 / weightp=2 / keyint=250 / keyint_min=25 / scenecut=40 / intra_refresh=0 / rc_lookahead=40 / rc=abr / mbtree=1 / bitrate=2900 / ratetol=1.0 / qcomp=0.60 / qpmin=10 / qpmax=51 / qpstep=4 / ip_ratio=1.41 / aq=1:1.00
Language : English
Default : Yes
Forced : No
Duration_Source : General_Duration

Audio
ID : 2
Format : AC-3
Format/Info : Audio Coding 3
Commercial name : Dolby Digital
Codec ID : A_AC3
Duration : 2 h 41 min
Bit rate mode : Constant
Bit rate : 256 kb/s
Channel(s) : 1 channel
Channel layout : C
Sampling rate : 44.1 kHz
Frame rate : 28.711 FPS (1536 SPF)
Compression mode : Lossy
Stream size : 296 MiB (8%)
Title : Mono
Language : Spanish
Service kind : Complete Main
Default : Yes
Forced : No
Duration_Source : General_Duration

Text
ID : 3
Format : PGS
Muxing mode : zlib
Codec ID : S_HDMV/PGS
Codec ID/Info : Picture based subtitle format used on BDs/HD-DVDs
Language : English
Default : Yes
Forced : No

Menu
00:00:00.000 : en:Chapter 01
00:05:41.883 : en:Chapter 02
00:14:51.724 : en:Chapter 03
00:17:37.264 : en:Chapter 04
00:24:02.149 : en:Chapter 05
00:26:52.193 : en:Chapter 06
00:32:44.629 : en:Chapter 07
00:36:05.329 : en:Chapter 08
00:38:15.626 : en:Chapter 09
00:46:41.632 : en:Chapter 10
00:49:52.447 : en:Chapter 11
00:52:38.113 : en:Chapter 12
01:04:44.213 : en:Chapter 13
01:08:48.457 : en:Chapter 14
01:12:47.988 : en:Chapter 15
01:19:47.032 : en:Chapter 16
01:22:49.172 : en:Chapter 17
01:26:35.106 : en:Chapter 18
01:35:27.972 : en:Chapter 19
01:39:08.692 : en:Chapter 20
01:42:27.683 : en:Chapter 21
01:48:59.324 : en:Chapter 22
01:56:19.555 : en:Chapter 23
02:02:43.397 : en:Chapter 24
02:09:08.073 : en:Chapter 25
02:13:04.559 : en:Chapter 26
02:17:25.654 : en:Chapter 27
02:25:51.367 : en:Chapter 28
02:32:02.822 : en:Chapter 29




Screenshots 1080p (click to enlarge to original size):

Lucía (1968) [Criterion Collection]

Lucía (1968) [Criterion Collection]

Lucía (1968) [Criterion Collection]



Screenshots 720p (click to enlarge to original size):

Lucía (1968) [Criterion Collection]





More in My Blog



If you like this release please visit my blog
In it you will find releases of director Martin Scorsese's World Cinema Project