Look Back in Anger (1959) [British Film Institute]

Look Back in Anger (1959) [British Film Institute]

Look Back in Anger (1959) [British Film Institute]
DVD Video | 1hr 35mn | PAL 16:9 | 720x576 | 7.76 Gb
English: LinearPCM, 2 ch | Subtitles: English
DVDRip | MKV | AVC 720x576, ~ 1.9 Mbps | 1hr 35mn | 1.43 Gb
English: AC3, 2 ch, 256 kbps | Subtitles: English
Genre: Drama



Director: Tony Richardson
Writers: John Osborne (play), Nigel Kneale (screenplay)
Stars: Richard Burton, Claire Bloom, Mary Ure

Film Distributor: BFI (British Film Institute)

Jimmy Porter is a loud, obnoxious man, rude and verbally abusive to his wife, Alison. Alison comes from an upper class family that Jimmy abhors and he berates Alison for being too reserved and unfeeling. Jimmy is college educated but works with a partner, Cliff Lewis, as a street vendor operating a candy stall. Cliff lives with Jimmy and Alison and is close friends with both. When Jimmy pushes Alison while she is at the ironing board she is burned. Alison visits her doctor where it is revealed that she is pregnant. She asks him if it is too late to do something about it but the doctor immediately tells her never to mention such an idea. When Jimmy leaves for work, Alison confides to Cliff that she is pregnant. She is frightened of Jimmy's reaction to this news, and has not told him. Jimmy is visited by his childhood nanny, Mrs. Tanner, whom Jimmy loves and calls "Mom." Alison tries to tell Jimmy of the pregnancy but is frustrated when Jimmy insults her for being cool towards Mrs. …

Extras:
- The Stories that Changed British Cinema panel discussion: Danny Leigh, Rita Tushingham, Tom Courtenay, Joely Richardson, Paris Lees and Jez Butterworth explore the gritty stories brought to life by Woodfall Films (2018, 46 min.)
- George Devine Memorial Play: Look Back in Anger (Peter Whitehead, 1966, 16 min.).
- Oswald Morris Remembers Woodfall (Alan Van Wijgerden, 1993, 23 min.).
- Ten Bob in Winter (Lloyd Reckord, 1963, 11 min.).




Title: LookBackInAnger.1959.BFI.D9
Size: 7.76 Gb ( 8 138 458,00 KBytes ) - DVD-9
Enabled regions: 1, 2, 3, 4, 5, 6, 7, 8

VTS_01 :
Play Length: 00:00:00+01:35:26
Video: PAL 16:9 (720x576) VBR, Auto Letterboxed
Audio:
English (LinearPCM, 2 ch)
Subtitles:
English

VTS_02 :
Play Length: 00:46:42+00:02:59+00:01:28+00:46:43+{00:03:00}+{00:01:28}
Video: PAL 16:9 (720x576) VBR, Auto Letterboxed
Audio:
English (Dolby AC3, 2 ch)

VTS_03 :
Play Length: 00:16:11+00:23:04+00:11:39+00:16:12+{00:23:05}+{00:11:40}
Video: PAL 4:3 (720x576) VBR
Audio:
English (Dolby AC3, 2 ch)

VTS_04 :
Play Length: 00:00:28
Video: PAL 16:9 (720x576) VBR, Auto Letterboxed
Audio:
English (Dolby AC3, 2 ch)





General
Unique ID : 244134041288974121565037669340838862468 (0xB7AA818CE75BC391872F82B756F39E84)
Complete name : F:\LookBackInAnger.1959.BFI.Dr\LookBackInAnger.1959.BFI.Dr.mkv
Format : Matroska
Format version : Version 4
File size : 1.43 GiB
Duration : 1 h 35 min
Overall bit rate : 2 141 kb/s
Movie name : Release RSU75
Encoded date : UTC 2020-10-14 16:41:56
Writing application : mkvmerge v6.6.0 ('The Edge Of The In Between') built on Dec 1 2013 17:55:00
Writing library : libebml v1.3.0 + libmatroska v1.4.1

Video
ID : 1
Format : AVC
Format/Info : Advanced Video Codec
Format profile : High@L4.1
Format settings : CABAC / 4 Ref Frames
Format settings, CABAC : Yes
Format settings, Reference fra : 4 frames
Codec ID : V_MPEG4/ISO/AVC
Duration : 1 h 35 min
Bit rate : 1 900 kb/s
Width : 720 pixels
Height : 576 pixels
Display aspect ratio : 16:9
Frame rate mode : Constant
Frame rate : 25.000 FPS
Standard : PAL
Color space : YUV
Chroma subsampling : 4:2:0
Bit depth : 8 bits
Scan type : Progressive
Bits/(Pixel*Frame) : 0.183
Stream size : 1.23 GiB (86%)
Writing library : x264 core 148 r2643 5c65704
Encoding settings : cabac=1 / ref=4 / deblock=1:0:0 / analyse=0x3:0x113 / me=umh / subme=8 / psy=1 / psy_rd=1.00:0.00 / mixed_ref=1 / me_range=24 / chroma_me=1 / trellis=1 / 8x8dct=1 / cqm=0 / deadzone=21,11 / fast_pskip=1 / chroma_qp_offset=-2 / threads=3 / lookahead_threads=1 / sliced_threads=0 / nr=0 / decimate=1 / interlaced=0 / bluray_compat=0 / constrained_intra=0 / bframes=3 / b_pyramid=0 / b_adapt=2 / b_bias=0 / direct=3 / weightb=1 / open_gop=0 / weightp=2 / keyint=250 / keyint_min=25 / scenecut=40 / intra_refresh=0 / rc_lookahead=40 / rc=abr / mbtree=1 / bitrate=1900 / ratetol=1.0 / qcomp=0.60 / qpmin=10 / qpmax=51 / qpstep=4 / ip_ratio=1.41 / aq=1:1.00
Language : English
Default : Yes
Forced : No
Duration_Source : General_Duration

Audio
ID : 2
Format : AC-3
Format/Info : Audio Coding 3
Commercial name : Dolby Digital
Codec ID : A_AC3
Duration : 1 h 35 min
Bit rate mode : Constant
Bit rate : 256 kb/s
Channel(s) : 2 channels
Channel layout : L R
Sampling rate : 44.1 kHz
Frame rate : 28.711 FPS (1536 SPF)
Compression mode : Lossy
Stream size : 175 MiB (12%)
Title : Stereo
Language : English
Service kind : Complete Main
Default : Yes
Forced : No
Duration_Source : General_Duration

Text
ID : 3
Format : VobSub
Muxing mode : zlib
Codec ID : S_VOBSUB
Codec ID/Info : Picture based subtitle format used on DVDs
Language : English
Default : Yes
Forced : No

Menu
00:00:00.000 : en:Chapter 01
00:07:05.000 : en:Chapter 02
00:18:49.760 : en:Chapter 03
00:26:37.120 : en:Chapter 04
00:36:03.440 : en:Chapter 05
00:45:31.480 : en:Chapter 06
00:53:53.160 : en:Chapter 07
01:00:38.640 : en:Chapter 08
01:07:27.360 : en:Chapter 09
01:15:15.280 : en:Chapter 10
01:20:49.200 : en:Chapter 11
01:26:56.360 : en:Chapter 12




Screenshots DVD (click to enlarge to original size):

Look Back in Anger (1959) [British Film Institute]

Look Back in Anger (1959) [British Film Institute]

Look Back in Anger (1959) [British Film Institute]

Look Back in Anger (1959) [British Film Institute]

Look Back in Anger (1959) [British Film Institute]



Thanks to original uploader


Screenshots DVDRip (click to enlarge to original size):

Look Back in Anger (1959) [British Film Institute]





More in My Blog



If you like this release please visit my blog
In it you will find ALL the latest BFI releases