Monty Python’s Life of Brian (1979) [Criterion Collection]

Monty Python’s Life of Brian (1979) [Criterion Collection]

Monty Python’s Life of Brian (1979) [Criterion Collection, Spine #61]
DVD Video | NTSC 4:3 | 720x480 | 1hr 33mn | 7.47 Gb
DVDRip | MKV | AVC 720x480, ~ 1.7 Mbps | 1hr 33mn | 1.50 GB
English: AC3, 1 ch, 192 kbps \ AC3, 1 ch, 192 kbps \ AC3, 1 ch, 192 kbps
Subtitles: English
Genre: Comedy



Director: Terry Jones
Writer: Graham Chapman, John Cleese
Stars: Graham Chapman, John Cleese, Michael Palin

After slaying the Arthurian legend in their now classic Holy Grail, the Pythons set their sights on the Greatest Story Ever Told. Blind faith, virgin birth, crucifixion—nothing is sacred in this epic send-up of ancient times, which draws on the cornball biblical blockbusters of the 1950s to lampoon celebrity culture in any era. Criterion has gathered the guilty parties—including John Cleese, Terry Gilliam, Eric Idle, Terry Jones, and Michael Palin—for two commentary tracks as provocative and hilarious as the film itself.

Extras:
- Beautiful widescreen digital transfer, approved by director Terry Jones and enhanced for widescreen televisions
- Two exclusive audio commentaries: One by Terry Gilliam, Eric Idle, and Terry Jones; the second by John Cleese and Michael Palin
- Original theatrical trailer
- Five rarely seen deleted scenes with audio commentary by the Pythons
- Four original British radio ads
- Documentary film The Pythons, shot on location during the making of Life of Brian
- English subtitles for the deaf and hearing impaired
- Optimal image quality: RSDL dual-layer edition





Title: LifeOfBrian.1979.Cr.D9
Size: 7.47 Gb ( 7 833 262,00 KBytes ) - DVD-9
Enabled regions: 1, 2, 3, 4, 5, 6, 7, 8

VTS_01 :
Play Length: 00:04:36+00:01:59+00:04:28+00:01:18+00:00:42+00:00:00
Video: NTSC 4:3 (720x480) VBR
Audio:
English (Dolby AC3, 2 ch)
English (Dolby AC3, 2 ch)

VTS_02 :
Play Length: 01:33:45
Video: NTSC 16:9 (720x480) VBR, Auto Letterboxed
Audio:
English (Dolby AC3, 2 ch)
English (Dolby AC3, 2 ch)
English (Dolby AC3, 2 ch)
Subtitles:
English

VTS_03 :
Play Length: 00:49:50+00:02:47
Video: NTSC 4:3 (720x480) VBR
Audio:
English (Dolby AC3, 2 ch)





General
Unique ID : 198742830237656972562798959822494766825 (0x95847A0F7ABB7C3D8E21778F52A416E9)
Complete name : F:\LifeOfBrian.1979.Cr.Dr\LifeOfBrian.1979.Cr.Dr.mkv
Format : Matroska
Format version : Version 4 / Version 2
File size : 1.50 GiB
Duration : 1 h 33 min
Overall bit rate : 2 281 kb/s
Movie name : Release RSU75
Encoded date : UTC 2020-03-20 03:40:15
Writing application : mkvmerge v6.6.0 ('The Edge Of The In Between') built on Dec 1 2013 17:55:00
Writing library : libebml v1.3.0 + libmatroska v1.4.1

Video
ID : 1
Format : AVC
Format/Info : Advanced Video Codec
Format profile : High@L4.1
Format settings : CABAC / 4 Ref Frames
Format settings, CABAC : Yes
Format settings, ReFrames : 4 frames
Codec ID : V_MPEG4/ISO/AVC
Duration : 1 h 33 min
Bit rate : 1 700 kb/s
Width : 720 pixels
Height : 480 pixels
Display aspect ratio : 16:9
Original display aspect rat : 16:9
Frame rate mode : Constant
Frame rate : 23.976 (23976/1000) FPS
Color space : YUV
Chroma subsampling : 4:2:0
Bit depth : 8 bits
Scan type : Progressive
Bits/(Pixel*Frame) : 0.205
Stream size : 1.09 GiB (73%)
Writing library : x264 core 148 r2643 5c65704
Encoding settings : cabac=1 / ref=4 / deblock=1:0:0 / analyse=0x3:0x113 / me=umh / subme=8 / psy=1 / psy_rd=1.00:0.00 / mixed_ref=1 / me_range=24 / chroma_me=1 / trellis=1 / 8x8dct=1 / cqm=0 / deadzone=21,11 / fast_pskip=1 / chroma_qp_offset=-2 / threads=3 / lookahead_threads=1 / sliced_threads=0 / nr=0 / decimate=1 / interlaced=0 / bluray_compat=0 / constrained_intra=0 / bframes=3 / b_pyramid=0 / b_adapt=2 / b_bias=0 / direct=3 / weightb=1 / open_gop=0 / weightp=2 / keyint=250 / keyint_min=25 / scenecut=40 / intra_refresh=0 / rc_lookahead=40 / rc=abr / mbtree=1 / bitrate=1700 / ratetol=1.0 / qcomp=0.60 / qpmin=10 / qpmax=51 / qpstep=4 / ip_ratio=1.41 / aq=1:1.00
Language : English
Default : Yes
Forced : No

Audio #1
ID : 2
Format : AC-3
Format/Info : Audio Coding 3
Commercial name : Dolby Digital
Codec ID : A_AC3
Duration : 1 h 33 min
Bit rate mode : Constant
Bit rate : 192 kb/s
Channel(s) : 2 channels
Channel layout : L R
Sampling rate : 48.0 kHz
Frame rate : 31.250 FPS (1536 SPF)
Bit depth : 16 bits
Compression mode : Lossy
Stream size : 129 MiB (8%)
Title : Stereo
Language : English
Service kind : Complete Main
Default : Yes
Forced : No

Audio #2
ID : 3
Format : AC-3
Format/Info : Audio Coding 3
Commercial name : Dolby Digital
Codec ID : A_AC3
Duration : 1 h 33 min
Bit rate mode : Constant
Bit rate : 192 kb/s
Channel(s) : 2 channels
Channel layout : L R
Sampling rate : 48.0 kHz
Frame rate : 31.250 FPS (1536 SPF)
Bit depth : 16 bits
Compression mode : Lossy
Stream size : 129 MiB (8%)
Title : Stereo
Language : English
Service kind : Complete Main
Default : No
Forced : No

Audio #3
ID : 4
Format : AC-3
Format/Info : Audio Coding 3
Commercial name : Dolby Digital
Codec ID : A_AC3
Duration : 1 h 33 min
Bit rate mode : Constant
Bit rate : 192 kb/s
Channel(s) : 2 channels
Channel layout : L R
Sampling rate : 48.0 kHz
Frame rate : 31.250 FPS (1536 SPF)
Bit depth : 16 bits
Compression mode : Lossy
Stream size : 129 MiB (8%)
Title : Stereo
Language : English
Service kind : Complete Main
Default : No
Forced : No

Text
ID : 5
Format : VobSub
Muxing mode : zlib
Codec ID : S_VOBSUB
Codec ID/Info : Picture based subtitle format used on DVDs
Language : English
Default : Yes
Forced : No

Menu
00:00:00.066 : en:Chapter 01
00:04:20.326 : en:Chapter 02
00:06:54.730 : en:Chapter 03
00:14:17.122 : en:Chapter 04
00:16:22.631 : en:Chapter 05
00:18:14.126 : en:Chapter 06
00:23:53.999 : en:Chapter 07
00:31:03.895 : en:Chapter 08
00:38:22.083 : en:Chapter 09
00:42:39.590 : en:Chapter 10
00:46:18.942 : en:Chapter 11
00:52:30.931 : en:Chapter 12
00:57:50.116 : en:Chapter 13
01:00:26.172 : en:Chapter 14
01:03:00.343 : en:Chapter 15
01:11:37.359 : en:Chapter 16
01:14:19.521 : en:Chapter 17
01:22:37.352 : en:Chapter 18
01:25:17.128 : en:Chapter 19
01:29:32.367 : en:Chapter 20




Screenshots DVD(click to enlarge to original size):

Monty Python’s Life of Brian (1979) [Criterion Collection]

Monty Python’s Life of Brian (1979) [Criterion Collection]

Monty Python’s Life of Brian (1979) [Criterion Collection]

Monty Python’s Life of Brian (1979) [Criterion Collection]

Monty Python’s Life of Brian (1979) [Criterion Collection]



Screenshots DVDRip (click to enlarge to original size):

Monty Python’s Life of Brian (1979) [Criterion Collection]



All thanks to the original uploader




If you like this release please visit my blog
In it you will find ALL the latest Criterion Collection releases (DVD, Blu-Ray, BDRip)