BBC - Life on Earth (1979)

BBC - Life on Earth (1979)

BBC - Life on Earth (1979)
BluRay | 960 x 720 | .MKV/AVC @ 10.0 Mbps | 13x~54mn | 56.9 GB
Audio: English DTS 1509 Kbps, 2 channels | Subs: Chinese
Genre: Documentary, Nature

David Attenborough's groundbreaking study of the evolution of life on our planet.
Star: David Attenborough
More info: IMDB

also You can find my last: Nature-posts

General
Unique ID : 187674846546771964150666043125899579763 (0x8D30DC55587A4DCF8C997BC64E6DD173)
Complete name : BBC.Life.on.Earth.EP01.1979.mkv
Format : Matroska
Format version : Version 1
File size : 4.40 GiB
Duration : 54 min 17 s
Overall bit rate : 11.6 Mb/s
Encoded date : UTC 2014-10-22 00:26:19
Writing application : mkvmerge v2.2.0 ('Turn It On Again') built on Mar 4 2008 13:20:25
Writing library : libebml v0.7.7 + libmatroska v0.8.1
Attachments : MSYH.TTF / MSYHBD.TTF / tahoma.ttf

Video
ID : 1
Format : AVC
Format/Info : Advanced Video Codec
Format profile : High@L4.1
Format settings, CABAC : Yes
Format settings, ReFrames : 12 frames
Codec ID : V_MPEG4/ISO/AVC
Duration : 54 min 17 s
Bit rate : 10 000 kb/s
Width : 960 pixels
Height : 720 pixels
Display aspect ratio : 4:3
Frame rate mode : Constant
Frame rate : 25.000 FPS
Color space : YUV
Chroma subsampling : 4:2:0
Bit depth : 8 bits
Scan type : Progressive
Bits/(Pixel*Frame) : 0.579
Stream size : 3.74 GiB (85%)
Writing library : x264 core 130 r2273 b3065e6
Encoding settings : cabac=1 / ref=12 / deblock=1:-3:-3 / analyse=0x3:0x113 / me=umh / subme=11 / psy=1 / psy_rd=0.90:0.05 / mixed_ref=1 / me_range=32 / chroma_me=1 / trellis=2 / 8x8dct=1 / cqm=0 / deadzone=21,11 / fast_pskip=0 / chroma_qp_offset=-5 / threads=12 / lookahead_threads=2 / sliced_threads=0 / nr=0 / decimate=0 / interlaced=0 / bluray_compat=0 / constrained_intra=0 / bframes=8 / b_pyramid=2 / b_adapt=2 / b_bias=0 / direct=3 / weightb=1 / open_gop=0 / weightp=2 / keyint=250 / keyint_min=25 / scenecut=40 / intra_refresh=0 / rc_lookahead=80 / rc=2pass / mbtree=1 / bitrate=10000 / ratetol=1.0 / qcomp=0.60 / qpmin=0 / qpmax=69 / qpstep=4 / cplxblur=20.0 / qblur=0.5 / ip_ratio=1.40 / aq=1:0.75
Language : English
Default : Yes
Forced : No

Audio
ID : 2
Format : DTS
Format/Info : Digital Theater Systems
Mode : 16
Format settings, Endianness : Big
Codec ID : A_DTS
Duration : 54 min 17 s
Bit rate mode : Constant
Bit rate : 1 509 kb/s
Channel(s) : 2 channels
Channel positions : Front: L R
Sampling rate : 48.0 kHz
Frame rate : 93.750 FPS (512 spf)
Bit depth : 16 bits
Compression mode : Lossy
Stream size : 586 MiB (13%)
Title : 英语
Language : English
Default : Yes
Forced : No

Text
ID : 3
Format : ASS
Codec ID : S_TEXT/ASS
Codec ID/Info : Advanced Sub Station Alpha
Compression mode : Lossless
Title : chs&eng
Language : Chinese
Default : Yes
Forced : No
Screenshots

BBC - Life on Earth (1979)

BBC - Life on Earth (1979)

BBC - Life on Earth (1979)

BBC - Life on Earth (1979)

Welcome to my blog - daily update!

BBC - Life on Earth (1979)