It's a Wonderful Life (1946) - Colorized 2007

It's a Wonderful Life (1946) - Colorized 2007

It's a Wonderful Life (1946) - Colorized 2007
MKV | 960x720 | English | H265 @ 603 kbps | AAC @ 160 kbps | 2 h 10 min | 717 MiB
Subtitles: English
Genre: Drama, Family, Fantasy

An angel is sent from Heaven to help a desperately frustrated businessman by showing him what life would have been like if he had never existed.

Its.A.Wonderful.Life.1946.Colorized.2007.Frank.Capra.James.Stewart.Donna.Reed.Lionel.Barrymore.Gloria.Grahame.720p.Brip.EngSubS.HEVC.x265-RG.mkv (717.0 MB)



General
Unique ID : 242435415452449552472148236941704542306 (0xB6635CD4A9C8F8C9AAADC8C7F743B862)
Complete name : ./Its.A.Wonderful.Life.1946.Colorized.2007.Frank.Capra.James.Stewart.Donna.Reed.Lionel.Barrymore.Gloria.Grahame.720p.Brip.EngSubS.HEVC.x265-RG.mkv
Format : Matroska
Format version : Version 4 / Version 2
File size : 717 MiB
Duration : 2 h 10 min
Overall bit rate : 766 kb/s
Encoded date : UTC 2017-04-03 10:34:36
Writing application : mkvmerge v8.8.0 ('Wind at my back') 64bit
Writing library : libebml v1.3.3 + libmatroska v1.4.4

Video
ID : 1
Format : HEVC
Format/Info : High Efficiency Video Coding
Format profile : Main@L3.1@Main
Codec ID : V_MPEGH/ISO/HEVC
Duration : 2 h 10 min
Bit rate : 603 kb/s
Width : 960 pixels
Height : 720 pixels
Display aspect ratio : 4:3
Frame rate mode : Constant
Frame rate : 23.976 (24000/1001) FPS
Color space : YUV
Chroma subsampling : 4:2:0
Bit depth : 8 bits
Bits/(Pixel*Frame) : 0.036
Stream size : 565 MiB (79%)
Writing library : x265 1.9:[Windows][GCC 4.9.0][64 bit] 8bit
Encoding settings : wpp / ctu=32 / min-cu-size=8 / max-tu-size=32 / tu-intra-depth=1 / tu-inter-depth=1 / me=1 / subme=1 / merange=57 / no-rect / no-amp / max-merge=2 / temporal-mvp / early-skip / rdpenalty=0 / no-tskip / no-tskip-fast / strong-intra-smoothing / no-lossless / no-cu-lossless / no-constrained-intra / fast-intra / open-gop / no-temporal-layers / interlace=0 / keyint=240 / min-keyint=24 / scenecut=40 / rc-lookahead=10 / lookahead-slices=4 / bframes=3 / bframe-bias=0 / b-adapt=0 / ref=1 / limit-refs=0 / no-limit-modes / no-weightp / no-weightb / aq-mode=1 / qg-size=32 / aq-strength=0.00 / cbqpoffs=0 / crqpoffs=0 / rd=2 / psy-rd=2.00 / rdoq-level=0 / psy-rdoq=0.00 / signhide / deblock / no-sao / no-sao-non-deblock / b-pyramid / cutree / no-intra-refresh / rc=crf / crf=27.0 / qcomp=0.60 / qpmin=0 / qpmax=51 / qpstep=4 / ipratio=1.40 / pbratio=1.30
Language : English
Default : Yes
Forced : No
Color range : Limited
Color primaries : BT.709
Transfer characteristics : BT.709
Matrix coefficients : BT.709

Audio
ID : 2
Format : AAC
Format/Info : Advanced Audio Codec
Format profile : LC
Codec ID : A_AAC-2
Duration : 2 h 10 min
Bit rate : 160 kb/s
Channel(s) : 2 channels
Channel positions : Front: L R
Sampling rate : 48.0 kHz
Frame rate : 46.875 FPS (1024 SPF)
Compression mode : Lossy
Delay relative to video : -83 ms
Stream size : 150 MiB (21%)
Language : English
Default : Yes
Forced : No

Text
ID : 3
Format : UTF-8
Codec ID : S_TEXT/UTF8
Codec ID/Info : UTF-8 Plain Text
Duration : 2 h 8 min
Bit rate : 90 b/s
Count of elements : 2268
Stream size : 85.6 KiB (0%)
Language : English
Default : Yes
Forced : No





It's a Wonderful Life (1946) - Colorized 2007


It's a Wonderful Life (1946) - Colorized 2007


It's a Wonderful Life (1946) - Colorized 2007


It's a Wonderful Life (1946) - Colorized 2007


It's a Wonderful Life (1946) - Colorized 2007