Law and Order (1953)

Law and Order (1953)

Law and Order (1953)
BDRip | MKV | 1480x1080 | English | H264 @ 11500 kbps | DTS @ 1509 kbps | 1 h 19 min | 7.26 GiB
Subtitles: English
Genre: Action, Western

Frame Johnson's attempt to settle down in Tombstone is interrupted when a mob tries to mete out some frontier justice.

Law.And.Order.1953.1080p.BluRay.x264.DTS-FGT.mkv (7.3 GB)



General
Unique ID : 252694630149267559129668513168173653200 (0xBE1B372AF1D3EA283E4ECB67286D5CD0)
Complete name : ./Law.And.Order.1953.1080p.BluRay.x264.DTS-FGT.mkv
Format : Matroska
Format version : Version 4 / Version 2
File size : 7.26 GiB
Duration : 1 h 19 min
Overall bit rate : 13.0 Mb/s
Movie name : Law.And.Order.1953.1080p.BluRay.x264.DTS-FGT
Encoded date : UTC 2019-07-25 19:38:07
Writing application : mkvmerge v34.0.0 ('Sight and Seen') 64-bit
Writing library : libebml v1.3.7 + libmatroska v1.5.0
Cover : Yes
Attachments : small_cover.jpg / small_cover_land.jpg / cover.jpg / cover_land.jpg

Video
ID : 1
Format : AVC
Format/Info : Advanced Video Codec
Format profile : High@L4.1
Format settings : CABAC / 4 Ref Frames
Format settings, CABAC : Yes
Format settings, RefFrames : 4 frames
Codec ID : V_MPEG4/ISO/AVC
Duration : 1 h 19 min
Bit rate : 11.5 Mb/s
Width : 1 480 pixels
Height : 1 080 pixels
Display aspect ratio : 1.370
Frame rate mode : Constant
Frame rate : 23.976 (24000/1001) FPS
Color space : YUV
Chroma subsampling : 4:2:0
Bit depth : 8 bits
Scan type : Progressive
Bits/(Pixel*Frame) : 0.300
Stream size : 6.41 GiB (88%)
Title : Law.And.Order.1953.1080p.BluRay.x264.DTS-FGT
Writing library : x264 core 148 r2795M aaa9aa8
Encoding settings : cabac=1 / ref=4 / deblock=1:-2:-2 / analyse=0x3:0x113 / me=umh / subme=9 / psy=1 / psy_rd=1.00:0.15 / mixed_ref=1 / me_range=16 / chroma_me=1 / trellis=2 / 8x8dct=1 / cqm=0 / deadzone=21,11 / fast_pskip=1 / chroma_qp_offset=-3 / threads=24 / lookahead_threads=3 / sliced_threads=0 / nr=0 / decimate=1 / interlaced=0 / bluray_compat=0 / constrained_intra=0 / bframes=3 / b_pyramid=2 / b_adapt=1 / b_bias=0 / direct=3 / weightb=1 / open_gop=0 / weightp=2 / keyint=250 / keyint_min=25 / scenecut=40 / intra_refresh=0 / rc_lookahead=50 / rc=2pass / mbtree=1 / bitrate=11500 / ratetol=1.0 / qcomp=0.60 / qpmin=0 / qpmax=69 / qpstep=4 / cplxblur=20.0 / qblur=0.5 / vbv_maxrate=31250 / vbv_bufsize=31250 / nal_hrd=none / filler=0 / ip_ratio=1.40 / aq=1:1.00
Language : English
Default : Yes
Forced : No

Audio
ID : 2
Format : DTS
Format/Info : Digital Theater Systems
Mode : 16
Format settings, Endianness : Big
Codec ID : A_DTS
Duration : 1 h 19 min
Bit rate mode : Constant
Bit rate : 1 509 kb/s
Channel(s) : 2 channels
Channel positions : Front: L R
Sampling rate : 48.0 kHz
Frame rate : 93.750 FPS (512 SPF)
Bit depth : 24 bits
Compression mode : Lossy
Stream size : 862 MiB (12%)
Title : Law.And.Order.1953.1080p.BluRay.x264.DTS-FGT
Language : English
Default : Yes
Forced : No

Text
ID : 3
Format : UTF-8
Codec ID : S_TEXT/UTF8
Codec ID/Info : UTF-8 Plain Text
Duration : 1 h 17 min
Bit rate : 66 b/s
Count of elements : 1335
Stream size : 37.7 KiB (0%)
Language : English
Default : Yes
Forced : No

Menu
00:00:00.000 : en:Chapter 1
00:07:29.908 : en:Chapter 2
00:14:27.450 : en:Chapter 3
00:21:46.889 : en:Chapter 4
00:28:26.747 : en:Chapter 5
00:35:34.215 : en:Chapter 6
00:42:01.853 : en:Chapter 7
00:49:18.914 : en:Chapter 8
00:56:08.532 : en:Chapter 9
01:01:28.018 : en:Chapter 10
01:05:43.022 : en:Chapter 11
01:12:50.324 : en:Chapter 12





Law and Order (1953)


Law and Order (1953)


Law and Order (1953)


Law and Order (1953)


Law and Order (1953)