Ladies of the Park / Les dames du Bois de Boulogne (1945)

Ladies of the Park / Les dames du Bois de Boulogne (1945)

Ladies of the Park / Les dames du Bois de Boulogne (1945)
BDRip | MKV | AVC, 1476x1080, ~ 4.1 Mbps | 1hr 26mn | 3.21 GB | French (Français): DTS, 2 ch, 1510 kbps
BDRip | MKV | AVC, 984x720, ~ 2.9 Mbps | 1hr 26mn | 1.84 MB | French (Français): AC3, 2 ch, 448 kbps
Subtitles: English, French (Français)
Genre: Drama, Romance
IMDB Rating: 7.3/10 (3.539 votes)


Director: Robert Bresson
Writers: Robert Bresson (scenario & adaptation), Denis Diderot (novel)
Stars: Paul Bernard, María Casares, Elina Labourdette

Hélène understands that Jean doesn't love her anymore. She is full of grief and anger, and she starts brooding on revenge. When she meets Jean, she pretends herself to be the one that has ceased to love the other. Jean is relieved, because now he thinks they can part as friends. Hélène goes to a night club, where a young woman, Agnès, is a famous dancer. Agnés has been forced into this life of debauchery and courtesanship because of poverty. She hates it and all the lecherous men. Hélène has met Agnès and her mother several years ago, and after the show she looks them up. She says that she will help them to leave this degrading life. The next day they shall move to an apartment she has rented, and stay there anonymously. Some days later she arranges a seemingly spontaneous meeting between Jean and Agnès in the Bois de Boulogne. Jean immediately falls in love with Agnès, who he thinks is an innocent girl from the countryside. Fueled by Hélène, and by Agnès's resistance, his infatuation…

Extras:
- None




General
Unique ID : 190620561108565741907510814818661757625 (0x8F682F463CC941289B085E32EDC2F2B9)
Complete name : F:\LadiesOfThePark.1945.1p\LadiesOfThePark.1945.1p.mkv
Format : Matroska
Format version : Version 4 / Version 2
File size : 3.21 GiB
Duration : 1 h 26 min
Overall bit rate : 5 308 kb/s
Movie name : Release RSU75
Encoded date : UTC 2019-08-27 17:39:35
Writing application : mkvmerge v6.6.0 ('The Edge Of The In Between') built on Dec 1 2013 17:55:00
Writing library : libebml v1.3.0 + libmatroska v1.4.1

Video
ID : 1
Format : HEVC
Format/Info : High Efficiency Video Coding
Format profile : Main@L4@Main
Codec ID : V_MPEGH/ISO/HEVC
Duration : 1 h 26 min
Bit rate : 3 693 kb/s
Width : 1 476 pixels
Height : 1 080 pixels
Display aspect ratio : 4:3
Frame rate mode : Constant
Frame rate : 24.000 FPS
Color space : YUV
Chroma subsampling : 4:2:0
Bit depth : 8 bits
Bits/(Pixel*Frame) : 0.097
Stream size : 2.23 GiB (70%)
Writing library : x265 1.9+5-20f14d78dbad:[Windows][GCC 5.2.0][32 bit] 8bit
Encoding settings : wpp / ctu=64 / min-cu-size=8 / max-tu-size=32 / tu-intra-depth=1 / tu-inter-depth=1 / me=1 / subme=2 / merange=57 / no-rect / no-amp / max-merge=2 / temporal-mvp / no-early-skip / rdpenalty=0 / no-tskip / no-tskip-fast / strong-intra-smoothing / no-lossless / no-cu-lossless / no-constrained-intra / no-fast-intra / open-gop / no-temporal-layers / interlace=0 / keyint=250 / min-keyint=24 / scenecut=40 / rc-lookahead=20 / lookahead-slices=6 / bframes=4 / bframe-bias=0 / b-adapt=2 / ref=3 / limit-refs=3 / no-limit-modes / weightp / no-weightb / aq-mode=1 / qg-size=32 / aq-strength=1.00 / cbqpoffs=0 / crqpoffs=0 / rd=3 / psy-rd=2.00 / rdoq-level=0 / psy-rdoq=0.00 / signhide / deblock / sao / no-sao-non-deblock / b-pyramid / cutree / no-intra-refresh / rc=abr / bitrate=3800 / qcomp=0.60 / qpmin=0 / qpmax=51 / qpstep=4 / ipratio=1.40 / pbratio=1.30
Language : English
Default : Yes
Forced : No

Audio
ID : 2
Format : DTS
Format/Info : Digital Theater Systems
Codec ID : A_DTS
Duration : 1 h 26 min
Bit rate mode : Constant
Bit rate : 1 509 kb/s
Channel(s) : 2 channels
Channel layout : L R
Sampling rate : 48.0 kHz
Frame rate : 93.750 FPS (512 SPF)
Bit depth : 24 bits
Compression mode : Lossy
Stream size : 933 MiB (28%)
Language : French
Default : Yes
Forced : No

Text #1
ID : 3
Format : PGS
Muxing mode : zlib
Codec ID : S_HDMV/PGS
Codec ID/Info : Picture based subtitle format used on BDs/HD-DVDs
Language : English
Default : Yes
Forced : No

Text #2
ID : 4
Format : PGS
Muxing mode : zlib
Codec ID : S_HDMV/PGS
Codec ID/Info : Picture based subtitle format used on BDs/HD-DVDs
Language : French
Default : No
Forced : No

Menu
00:00:00.000 : en:Chapter 01
00:05:14.250 : en:Chapter 02
00:12:11.125 : en:Chapter 03
00:21:31.791 : en:Chapter 04
00:28:36.083 : en:Chapter 05
00:37:49.833 : en:Chapter 06
00:43:51.583 : en:Chapter 07
00:51:05.625 : en:Chapter 08
00:56:03.333 : en:Chapter 09
01:04:11.833 : en:Chapter 10
01:12:01.041 : en:Chapter 11
01:21:36.083 : en:Chapter 12






General
Unique ID : 231686202975628272188747002787711254096 (0xAE4D23BCE7B94C22BBB6073863317E50)
Complete name : F:\LadiesOfThePark.1945.7p\LadiesOfThePark.1945.7p.mkv
Format : Matroska
Format version : Version 4 / Version 2
File size : 1.84 GiB
Duration : 1 h 26 min
Overall bit rate : 3 049 kb/s
Movie name : Release RSU75
Encoded date : UTC 2019-08-27 17:43:36
Writing application : mkvmerge v6.6.0 ('The Edge Of The In Between') built on Dec 1 2013 17:55:00
Writing library : libebml v1.3.0 + libmatroska v1.4.1

Video
ID : 1
Format : AVC
Format/Info : Advanced Video Codec
Format profile : High@L4.1
Format settings : CABAC / 4 Ref Frames
Format settings, CABAC : Yes
Format settings, ReFrames : 4 frames
Codec ID : V_MPEG4/ISO/AVC
Duration : 1 h 26 min
Bit rate : 2 600 kb/s
Width : 984 pixels
Height : 720 pixels
Display aspect ratio : 4:3
Frame rate mode : Constant
Frame rate : 24.000 FPS
Color space : YUV
Chroma subsampling : 4:2:0
Bit depth : 8 bits
Scan type : Progressive
Bits/(Pixel*Frame) : 0.153
Stream size : 1.53 GiB (83%)
Writing library : x264 core 148 r2643 5c65704
Encoding settings : cabac=1 / ref=4 / deblock=1:0:0 / analyse=0x3:0x113 / me=umh / subme=8 / psy=1 / psy_rd=1.00:0.00 / mixed_ref=1 / me_range=24 / chroma_me=1 / trellis=1 / 8x8dct=1 / cqm=0 / deadzone=21,11 / fast_pskip=1 / chroma_qp_offset=-2 / threads=3 / lookahead_threads=1 / sliced_threads=0 / nr=0 / decimate=1 / interlaced=0 / bluray_compat=0 / constrained_intra=0 / bframes=3 / b_pyramid=0 / b_adapt=2 / b_bias=0 / direct=3 / weightb=1 / open_gop=0 / weightp=2 / keyint=250 / keyint_min=25 / scenecut=40 / intra_refresh=0 / rc_lookahead=40 / rc=abr / mbtree=1 / bitrate=2600 / ratetol=1.0 / qcomp=0.60 / qpmin=10 / qpmax=51 / qpstep=4 / ip_ratio=1.41 / aq=1:1.00
Language : English
Default : Yes
Forced : No

Audio
ID : 2
Format : AC-3
Format/Info : Audio Coding 3
Commercial name : Dolby Digital
Codec ID : A_AC3
Duration : 1 h 26 min
Bit rate mode : Constant
Bit rate : 448 kb/s
Channel(s) : 2 channels
Channel layout : L R
Sampling rate : 48.0 kHz
Frame rate : 31.250 FPS (1536 SPF)
Bit depth : 16 bits
Compression mode : Lossy
Stream size : 277 MiB (15%)
Language : French
Service kind : Complete Main
Default : Yes
Forced : No

Text #1
ID : 3
Format : PGS
Muxing mode : zlib
Codec ID : S_HDMV/PGS
Codec ID/Info : Picture based subtitle format used on BDs/HD-DVDs
Language : English
Default : Yes
Forced : No

Text #2
ID : 4
Format : PGS
Muxing mode : zlib
Codec ID : S_HDMV/PGS
Codec ID/Info : Picture based subtitle format used on BDs/HD-DVDs
Language : French
Default : No
Forced : No

Menu
00:00:00.000 : en:Chapter 01
00:05:14.250 : en:Chapter 02
00:12:11.125 : en:Chapter 03
00:21:31.791 : en:Chapter 04
00:28:36.083 : en:Chapter 05
00:37:49.833 : en:Chapter 06
00:43:51.583 : en:Chapter 07
00:51:05.625 : en:Chapter 08
00:56:03.333 : en:Chapter 09
01:04:11.833 : en:Chapter 10
01:12:01.041 : en:Chapter 11
01:21:36.083 : en:Chapter 12




Screenshots 1080p (click to enlarge to original size):

Ladies of the Park / Les dames du Bois de Boulogne (1945)

Ladies of the Park / Les dames du Bois de Boulogne (1945)

Ladies of the Park / Les dames du Bois de Boulogne (1945)



Screenshots 720p (click to enlarge to original size):

Ladies of the Park / Les dames du Bois de Boulogne (1945)




–––––––––––––––––––––––––––––––––––––––-
>>> "BDRip" <<<OR >>> "Drama, Romance" <<<OR >>> "French (Français)" <<<
–––––––––––––––––––––––––––––––––––––––-
>>> Visit Blog RSU75 Here <<<
–––––––––––––––––––––––––––––––––––––––-