La provinciale / Провинциалка (1953)

La provinciale / Провинциалка (1953)

La provinciale (1953)
DVDRip | MKV | AVC 720x576, ~ 2.0 Mbps | 1hr 49mn | 2.02 GB
Italian: AC3, 6 ch, 448 kbps; Russian: AC3, 2 ch, 192 kbps
Subtitles: English, Italian
Genre: Comedy, Drama
IMDB Rating: 6.8/10 (124 votes)


Director: Mario Soldati
Writers: Alberto Moravia (novel), Giorgio Bassani (screenplay)
Stars: Gina Lollobrigida, Gabriele Ferzetti, Franco Interlenghi

Gemma, daughter of a lodger, is in love with her half-brother, but since she cannot marry him she ends up marrying a teacher. She doesn't love him and betrays him but is blackmailed by a Romanian countess who forces her to become a prostitute. She's desperate but in the end she asks her husband for help. She has learned to love him in the meantime.




General
Unique ID : 213996982817313991554982106761947992859 (0xA0FE51D946FD868B98A0335A5233531B)
Complete name : L:\LaProvinciale.53.Dr\LaProvinciale.53.Dr.mkv
Format : Matroska
Format version : Version 4 / Version 2
File size : 2.02 GiB
Duration : 1 h 49 min
Overall bit rate : 2 643 kb/s
Movie name : Release RSU75
Encoded date : UTC 2017-09-05 03:50:59
Writing application : mkvmerge v6.6.0 ('The Edge Of The In Between') built on Dec 1 2013 17:55:00
Writing library : libebml v1.3.0 + libmatroska v1.4.1

Video
ID : 1
Format : AVC
Format/Info : Advanced Video Codec
Format profile : High@L3
Format settings, CABAC : Yes
Format settings, ReFrames : 4 frames
Codec ID : V_MPEG4/ISO/AVC
Duration : 1 h 49 min
Bit rate : 2 000 kb/s
Width : 720 pixels
Height : 576 pixels
Display aspect ratio : 4:3
Frame rate mode : Constant
Frame rate : 25.000 FPS
Standard : PAL
Color space : YUV
Chroma subsampling : 4:2:0
Bit depth : 8 bits
Scan type : Progressive
Bits/(Pixel*Frame) : 0.193
Stream size : 1.49 GiB (74%)
Writing library : x264 core 144 r2533 c8a773e
Encoding settings : cabac=1 / ref=4 / deblock=1:0:0 / analyse=0x3:0x113 / me=umh / subme=8 / psy=1 / psy_rd=1.00:0.00 / mixed_ref=1 / me_range=24 / chroma_me=1 / trellis=1 / 8x8dct=1 / cqm=0 / deadzone=21,11 / fast_pskip=1 / chroma_qp_offset=-2 / threads=3 / lookahead_threads=1 / sliced_threads=0 / nr=0 / decimate=1 / interlaced=0 / bluray_compat=0 / constrained_intra=0 / bframes=3 / b_pyramid=0 / b_adapt=2 / b_bias=0 / direct=3 / weightb=1 / open_gop=0 / weightp=2 / keyint=250 / keyint_min=25 / scenecut=40 / intra_refresh=0 / rc_lookahead=40 / rc=abr / mbtree=1 / bitrate=2000 / ratetol=1.0 / qcomp=0.60 / qpmin=10 / qpmax=51 / qpstep=4 / ip_ratio=1.41 / aq=1:1.00
Language : English
Default : Yes
Forced : No

Audio #1
ID : 2
Format : AC-3
Format/Info : Audio Coding 3
Mode extension : CM (complete main)
Format settings, Endianness : Big
Codec ID : A_AC3
Duration : 1 h 49 min
Bit rate mode : Constant
Bit rate : 448 kb/s
Channel(s) : 6 channels
Channel positions : Front: L C R, Side: L R, LFE
Sampling rate : 48.0 kHz
Frame rate : 31.250 FPS (1536 spf)
Bit depth : 16 bits
Compression mode : Lossy
Delay relative to video : -40 ms
Stream size : 350 MiB (17%)
Language : Italian
Default : Yes
Forced : No

Audio #2
ID : 3
Format : AC-3
Format/Info : Audio Coding 3
Mode extension : CM (complete main)
Format settings, Endianness : Big
Codec ID : A_AC3
Duration : 1 h 49 min
Bit rate mode : Constant
Bit rate : 192 kb/s
Channel(s) : 2 channels
Channel positions : Front: L R
Sampling rate : 48.0 kHz
Frame rate : 31.250 FPS (1536 spf)
Bit depth : 16 bits
Compression mode : Lossy
Delay relative to video : -40 ms
Stream size : 150 MiB (7%)
Language : Russian
Default : No
Forced : No

Text #1
ID : 4
Format : VobSub
Muxing mode : zlib
Codec ID : S_VOBSUB
Codec ID/Info : Picture based subtitle format used on DVDs
Language : English
Default : Yes
Forced : No

Text #2
ID : 5
Format : VobSub
Muxing mode : zlib
Codec ID : S_VOBSUB
Codec ID/Info : Picture based subtitle format used on DVDs
Language : Italian
Default : No
Forced : No

Menu
00:00:00.000 : en:Chapter 01
00:03:07.200 : en:Chapter 02
00:09:10.160 : en:Chapter 03
00:13:20.280 : en:Chapter 04
00:18:08.360 : en:Chapter 05
00:24:07.160 : en:Chapter 06
00:28:52.120 : en:Chapter 07
00:34:37.920 : en:Chapter 08
00:42:49.840 : en:Chapter 09
00:50:02.480 : en:Chapter 10
00:58:14.400 : en:Chapter 11
01:03:01.440 : en:Chapter 12
01:05:53.560 : en:Chapter 13
01:10:01.600 : en:Chapter 14
01:17:01.240 : en:Chapter 15
01:21:18.640 : en:Chapter 16
01:27:10.680 : en:Chapter 17
01:32:12.280 : en:Chapter 18
01:39:30.120 : en:Chapter 19
01:43:25.680 : en:Chapter 20
01:48:55.360 : en:Chapter 21




О фильме: В пункт скорой помощи поступил звонок из семьи профессора Франко Вануцци. Молодому врачу Паоло Сартори пришлось выехать к тяжело больной пациентке. В ней он узнал Джемму, девушку, которую когда-то он очень любил. Воспоминания о былой любви сразу же всплыли в памяти…и раскаяние, словно раскалённое железо, жгло душу… " Я не должен был оставлять тебя." - мысленно говорил он, глядя на неё. - " Слова, которые ты ждала от меня, у меня не хватило смелости сказать тебе сразу, а тем более потом…"

Русский перевод: Профессиональный двухголосый



Screenshots (click to enlarge to original size):

La provinciale / Провинциалка (1953)

La provinciale / Провинциалка (1953)

La provinciale / Провинциалка (1953)

La provinciale / Провинциалка (1953)

La provinciale / Провинциалка (1953)


La provinciale / Провинциалка (1953)




–––––––––––––––––––––––––––––––––––––––-
>>> "Italian" <<< OR >>> "Drama" <<<
–––––––––––––––––––––––––––––––––––––––-
>>> Visit Blog RSU75 Here <<<
–––––––––––––––––––––––––––––––––––––––-