Messer im Kopf (1978)

Messer im Kopf (1978)

Messer im Kopf (1978)
BDRip | MKV | 960x576 | German | H264 @ 2284 kbps | AC-3 @ 192 kbps | 1 h 53 min | 1.97 GiB
Subtitles: English
Genre: Drama

One night when seeking his estranged wife, Hoffmann goes to the youth center where she works.

c3cdbf75c12342b9ae18e6dcddb78448.mkv (2.0 GB)



General
Unique ID : 221663912175722291719680105079848552020 (0xA6C2EAA69ECE7EA89A322C835A0BC654)
Complete name : ./c3cdbf75c12342b9ae18e6dcddb78448.mkv
Format : Matroska
Format version : Version 4 / Version 2
File size : 1.97 GiB
Duration : 1 h 53 min
Overall bit rate : 2 485 kb/s
Encoded date : UTC 2019-08-05 12:56:07
Writing application : mkvmerge v9.5.0 ('Quiet Fire') 64bit
Writing library : libebml v1.3.4 + libmatroska v1.4.5 / Lavf58.20.100

Video
ID : 1
Format : AVC
Format/Info : Advanced Video Codec
Format profile : High@L4.1
Format settings : CABAC / 9 Ref Frames
Format settings, CABAC : Yes
Format settings, RefFrames : 9 frames
Codec ID : V_MPEG4/ISO/AVC
Duration : 1 h 53 min
Bit rate : 2 285 kb/s
Width : 960 pixels
Height : 576 pixels
Display aspect ratio : 5:3
Frame rate mode : Constant
Frame rate : 24.000 FPS
Color space : YUV
Chroma subsampling : 4:2:0
Bit depth : 8 bits
Scan type : Progressive
Bits/(Pixel*Frame) : 0.172
Stream size : 1.81 GiB (92%)
Writing library : x264 core 157 r2935 545de2f
Encoding settings : cabac=1 / ref=9 / deblock=1:-3:-3 / analyse=0x3:0x133 / me=umh / subme=9 / psy=1 / psy_rd=1.00:0.00 / mixed_ref=1 / me_range=24 / chroma_me=1 / trellis=2 / 8x8dct=1 / cqm=0 / deadzone=21,11 / fast_pskip=0 / chroma_qp_offset=-2 / threads=6 / lookahead_threads=1 / sliced_threads=0 / nr=0 / decimate=1 / interlaced=0 / bluray_compat=0 / constrained_intra=0 / bframes=6 / b_pyramid=2 / b_adapt=2 / b_bias=0 / direct=3 / weightb=1 / open_gop=0 / weightp=2 / keyint=240 / keyint_min=24 / scenecut=40 / intra_refresh=0 / rc_lookahead=60 / rc=crf / mbtree=1 / crf=20.0 / qcomp=0.60 / qpmin=0 / qpmax=69 / qpstep=4 / vbv_maxrate=62500 / vbv_bufsize=78125 / crf_max=0.0 / nal_hrd=none / filler=0 / ip_ratio=1.40 / aq=1:1.00
Default : Yes
Forced : No
Color range : Limited
Color primaries : BT.709
Transfer characteristics : BT.709
Matrix coefficients : BT.709

Audio
ID : 2
Format : AC-3
Format/Info : Audio Coding 3
Format settings, Endianness : Big
Codec ID : A_AC3
Duration : 1 h 53 min
Bit rate mode : Constant
Bit rate : 192 kb/s
Channel(s) : 2 channels
Channel positions : Front: L R
Sampling rate : 48.0 kHz
Frame rate : 31.250 FPS (1536 SPF)
Bit depth : 16 bits
Compression mode : Lossy
Stream size : 156 MiB (8%)
Title : DD 2.0 Audio
Language : German
Service kind : Complete Main
Default : Yes
Forced : No

Text
ID : 3
Format : PGS
Muxing mode : zlib
Codec ID : S_HDMV/PGS
Codec ID/Info : Picture based subtitle format used on BDs/HD-DVDs
Duration : 1 h 50 min
Bit rate : 6 883 b/s
Count of elements : 1584
Stream size : 5.44 MiB (0%)
Language : English
Default : Yes
Forced : No

Menu
00:00:00.000 : :Chapter 1
00:13:00.417 : :Chapter 2
00:22:29.208 : :Chapter 3
00:35:57.000 : :Chapter 4
00:44:14.750 : :Chapter 5
00:53:33.417 : :Chapter 6
01:04:32.958 : :Chapter 7
01:15:26.542 : :Chapter 8
01:26:07.250 : :Chapter 9
01:33:34.125 : :Chapter 10
01:42:09.875 : :Chapter 11
01:51:55.583 : :Chapter 12





Messer im Kopf (1978)


Messer im Kopf (1978)


Messer im Kopf (1978)


Messer im Kopf (1978)


Messer im Kopf (1978)