King of Kings (1961)

King of Kings (1961)

King of Kings (1961)
BRRip | MKV | AVC, 6066 Kbps | 1920x1080 | 23.976 fps | 8.07 GB | Runtime: 170 Min
Audio : English Ac3 448 Kbps | 6 channels | 48 KHz | Subtitle : Polish
Audio : Polish Ac3 256 Kbps | 2 channels | 48 KHz
Genre : Biography | Drama | History

The story of the life of Jesus Christ from his birth in Bethlehem to his crucifixion and subsequent resurrection. Filmed on a relatively grand scale, the film includes all of the major events referred to in the New Testament; his baptism by John the Baptist; the miracles - cripples walking, blind men seeing; the fishes and the loaves; and so on. The film actually begins with the Roman invasion by Pompey in 65 B.C., the appointment of King Herod the Great by the Romans and finally the crowning of Herod Antipas after he murders his father. The revolt led by Barrabas is also included and John the Baptist's beheading as Salome's price for dancing for Herod.
IMDB


Video
ID : 1
Format : AVC
Format/Info : Advanced Video Codec
Format profile : High@L4.1
Format settings, CABAC : Yes
Format settings, ReFrames : 2 frames
Codec ID : V_MPEG4/ISO/AVC
Duration : 2h 50mn
Bit rate : 6 066 Kbps
Width : 1 920 pixels
Height : 1 080 pixels
Display aspect ratio : 2.2:1
Original display aspect ratio : 16:9
Frame rate mode : Constant
Frame rate : 23.976 (24000/1001) fps
Color space : YUV
Chroma subsampling : 4:2:0
Bit depth : 8 bits
Scan type : Progressive
Bits/(Pixel*Frame) : 0.122
Stream size : 7.23 GiB (90%)
Title : King of Kings (1961)-alE13
Writing library : x264 core 142
Encoding settings : cabac=1 / ref=1 / deblock=1:-1:-1 / analyse=0x3:0 / me=hex / subme=5 / psy=0 / mixed_ref=0 / me_range=16 / chroma_me=1 / trellis=0 / 8x8dct=1 / cqm=0 / deadzone=21,11 / fast_pskip=1 / chroma_qp_offset=0 / threads=4 / lookahead_threads=1 / sliced_threads=0 / nr=0 / decimate=1 / interlaced=0 / bluray_compat=0 / constrained_intra=0 / bframes=2 / b_pyramid=0 / b_adapt=1 / b_bias=0 / direct=1 / weightb=1 / open_gop=0 / weightp=0 / keyint=24 / keyint_min=13 / scenecut=40 / intra_refresh=0 / rc=abr / mbtree=0 / bitrate=6066 / ratetol=1.0 / qcomp=0.60 / qpmin=0 / qpmax=69 / qpstep=4 / ip_ratio=1.40 / pb_ratio=1.30 / aq=1:1.00
Default : Yes
Forced : No
Color range : Limited
Color primaries : BT.709
Transfer characteristics : BT.709
Matrix coefficients : BT.709

Audio #1
ID : 2
Format : AC-3
Format/Info : Audio Coding 3
Mode extension : CM (complete main)
Format settings, Endianness : Big
Codec ID : A_AC3
Duration : 2h 50mn
Bit rate mode : Constant
Bit rate : 448 Kbps
Channel(s) : 6 channels
Channel positions : Front: L C R, Side: L R, LFE
Sampling rate : 48.0 KHz
Frame rate : 31.250 fps (1536 spf)
Compression mode : Lossy
Stream size : 548 MiB (7%)
Title : King of Kings (1961)-alE13_AC3
Language : English
Default : No
Forced : No

Audio #2
ID : 3
Format : AC-3
Format/Info : Audio Coding 3
Mode extension : CM (complete main)
Format settings, Endianness : Big
Codec ID : A_AC3
Duration : 2h 50mn
Bit rate mode : Constant
Bit rate : 256 Kbps
Channel(s) : 2 channels
Channel positions : Front: L R
Sampling rate : 48.0 KHz
Frame rate : 31.250 fps (1536 spf)
Compression mode : Lossy
Stream size : 313 MiB (4%)
Title : King of Kings (1961)-alE13_AC3
Language : Polish
Default : Yes
Forced : No

Text
ID : 4
Format : UTF-8
Codec ID : S_TEXT/UTF8
Codec ID/Info : UTF-8 Plain Text
Duration : 2h 41mn
Bit rate : 45 bps
Count of elements : 1271
Stream size : 53.7 KiB (0%)
Title : King of Kings (1961)-alE13
Language : Polish
Default : Yes
Forced : No


King of Kings (1961)