Jumpin' Jack Flash (1986)

Jumpin' Jack Flash (1986)

Jumpin' Jack Flash (1986)
BDRip 1080p | MKV | 1920x1040 | AVC@10.2 Mb/s | English AC3@640 kb/s
Subs: English | 6 channels | 1 h 45 min | 7.94 GB
Genre: Comedy, Romance, Thriller

Terry works for a bank, and uses computers to communicate with clients all over the world. One day she gets a coded message from an unknown source. After decoding the message, Terry becomes embroiled in an espionage ring. People are killed, and Terry is chased. Throughout she remains in contact with this unknown person, who needs Terry to help save his life.

IMDB - 2 nominations.


General
Jumpin.Jack.Flash.1986.1080p.BluRay.x264-PSYCHD\Jumpin.Jack.Flash.1986.1080p.BluRay.x264-PSYCHD.mkv
Format : Matroska
Format version : Version 2
File size : 7.94 GiB
Duration : 1 h 45 min
Overall bit rate : 10.8 Mb/s
Writing application : mkvmerge v4.1.1 ('Bouncin' Back') built on Jul 3 2010 22:54:08
Writing library : libebml v1.0.0 + libmatroska v1.0

Video
ID : 1
Format : AVC
Format/Info : Advanced Video Codec
Format profile : High@L4.1
Format settings, CABAC : Yes
Format settings, ReFrames : 4 frames
Codec ID : V_MPEG4/ISO/AVC
Duration : 1 h 45 min
Bit rate : 10.2 Mb/s
Width : 1 920 pixels
Height : 1 040 pixels
Display aspect ratio : 1.85:1
Frame rate mode : Constant
Frame rate : 23.976 (24000/1001) FPS
Color space : YUV
Chroma subsampling : 4:2:0
Bit depth : 8 bits
Scan type : Progressive
Bits/(Pixel*Frame) : 0.212
Stream size : 7.31 GiB (92%)
Writing library : x264 core 133 r2334 a3ac64b
Encoding settings : cabac=1 / ref=4 / deblock=1:-3:-3 / analyse=0x3:0x113 / me=umh / subme=8 / psy=1 / psy_rd=1.00:0.00 / mixed_ref=1 / me_range=16 / chroma_me=1 / trellis=1 / 8x8dct=1 / cqm=0 / deadzone=21,11 / fast_pskip=1 / chroma_qp_offset=-2 / threads=12 / lookahead_threads=2 / sliced_threads=0 / nr=0 / decimate=1 / interlaced=0 / bluray_compat=0 / constrained_intra=0 / bframes=3 / b_pyramid=2 / b_adapt=2 / b_bias=0 / direct=3 / weightb=1 / open_gop=0 / weightp=2 / keyint=240 / keyint_min=24 / scenecut=40 / intra_refresh=0 / rc_lookahead=50 / rc=2pass / mbtree=1 / bitrate=10162 / ratetol=1.0 / qcomp=0.60 / qpmin=0 / qpmax=69 / qpstep=4 / cplxblur=20.0 / qblur=0.5 / ip_ratio=1.40 / aq=1:1.00
Language : English
Default : Yes
Forced : No

Audio
ID : 2
Format : AC-3
Format/Info : Audio Coding 3
Mode extension : CM (complete main)
Format settings, Endianness : Big
Codec ID : A_AC3
Duration : 1 h 45 min
Bit rate mode : Constant
Bit rate : 640 kb/s
Channel(s) : 6 channels
Channel positions : Front: L C R, Side: L R, LFE
Sampling rate : 48.0 kHz
Frame rate : 31.250 FPS (1536 spf)
Bit depth : 16 bits
Compression mode : Lossy
Stream size : 482 MiB (6%)
Language : English
Default : Yes
Forced : No

Text #1
ID : 3
Format : UTF-8
Codec ID : S_TEXT/UTF8
Codec ID/Info : UTF-8 Plain Text
Title : SDH
Language : English
Default : No
Forced : No

Text #2
ID : 4
Format : UTF-8
Codec ID : S_TEXT/UTF8
Codec ID/Info : UTF-8 Plain Text
Language : English
Default : No
Forced : No

Menu
00:00:00.000 : en:00:00:00.000
00:11:04.414 : en:00:11:04.414
00:20:34.358 : en:00:20:34.358
00:31:20.378 : en:00:31:20.378
00:40:56.204 : en:00:40:56.204
00:50:41.705 : en:00:50:41.705
01:00:01.515 : en:01:00:01.515
01:10:11.207 : en:01:10:11.207
01:21:31.136 : en:01:21:31.136
01:32:37.010 : en:01:32:37.010


BDRip 1080p Screenshots

Jumpin' Jack Flash (1986)

Jumpin' Jack Flash (1986)

Jumpin' Jack Flash (1986)

Jumpin' Jack Flash (1986)

Jumpin' Jack Flash (1986)


Come Visit My Blog (•‿•)