Jitterbugs (1943)

Jitterbugs (1943)

Jitterbugs (1943)
BluRay Remux | MKV | 1920x1080 | English | H264 @ 21719 kbps | FLAC @ 742 kbps | 1 h 14 min | 11.7 GiB
Subtitles: Swedish, Danish, Finnish, Norwegian
Genre: Comedy, Musical

The boys team up with a likable con man to help a pretty singer's mother who's been taken in by swindlers.

Jitterbugs.1943.1080p.BluRay.REMUX.AVC.FLAC.2.0-BLURANiUM=17fd32efcc04468bfe4862bde369c621891ea4df.part1.rar (6.2 GB)
Jitterbugs.1943.1080p.BluRay.REMUX.AVC.FLAC.2.0-BLURANiUM=17fd32efcc04468bfe4862bde369c621891ea4df.part2.rar (5.7 GB)



General
Complete name : ./1cb2cfd941874264b34d6e4f75746a1b.mkv
Format : Matroska
Format version : Version 4 / Version 2
File size : 11.7 GiB
Duration : 1 h 14 min
Overall bit rate mode : Variable
Overall bit rate : 22.6 Mb/s
Encoded date : UTC 2019-07-21 18:39:30
Writing application : mkvmerge v35.0.0 ('All The Love In The World') 64-bit
Writing library : libebml v1.3.9 + libmatroska v1.5.2

Video
ID : 1
Format : AVC
Format/Info : Advanced Video Codec
Format profile : High@L4.1
Format settings : CABAC / 3 Ref Frames
Format settings, CABAC : Yes
Format settings, RefFrames : 3 frames
Codec ID : V_MPEG4/ISO/AVC
Duration : 1 h 14 min
Bit rate mode : Variable
Bit rate : 21.7 Mb/s
Maximum bit rate : 30.0 Mb/s
Width : 1 920 pixels
Height : 1 080 pixels
Display aspect ratio : 16:9
Frame rate mode : Constant
Frame rate : 23.976 (24000/1001) FPS
Standard : NTSC
Color space : YUV
Chroma subsampling : 4:2:0
Bit depth : 8 bits
Scan type : Progressive
Bits/(Pixel*Frame) : 0.437
Stream size : 11.3 GiB (96%)
Title : MPEG-4 AVC Video / 21720 kbps / 1080p / 23.976 fps / 16:9 / High Profile 4.1
Language : English
Default : Yes
Forced : No
Color range : Limited
Color primaries : BT.709
Transfer characteristics : BT.709
Matrix coefficients : BT.709

Audio
ID : 2
Format : FLAC
Format/Info : Free Lossless Audio Codec
Codec ID : A_FLAC
Duration : 1 h 14 min
Bit rate mode : Variable
Bit rate : 742 kb/s
Channel(s) : 2 channels
Channel positions : Front: L R
Sampling rate : 48.0 kHz
Frame rate : 11.719 FPS (4096 SPF)
Bit depth : 24 bits
Stream size : 395 MiB (3%)
Title : FLAC Audio / 2.0 / 48 kHz / 742 kbps / 24-bit
Writing library : libFLAC 1.2.1 (UTC 2007-09-17)
Language : English
Default : Yes
Forced : No

Text #1
ID : 3
Format : PGS
Codec ID : S_HDMV/PGS
Codec ID/Info : Picture based subtitle format used on BDs/HD-DVDs
Duration : 1 h 12 min
Bit rate : 19.0 kb/s
Count of elements : 1062
Stream size : 9.87 MiB (0%)
Language : Danish
Default : No
Forced : No

Text #2
ID : 4
Format : PGS
Codec ID : S_HDMV/PGS
Codec ID/Info : Picture based subtitle format used on BDs/HD-DVDs
Duration : 1 h 12 min
Bit rate : 24.8 kb/s
Count of elements : 1522
Stream size : 12.9 MiB (0%)
Language : Finnish
Default : No
Forced : No

Text #3
ID : 5
Format : PGS
Codec ID : S_HDMV/PGS
Codec ID/Info : Picture based subtitle format used on BDs/HD-DVDs
Duration : 1 h 12 min
Bit rate : 25.7 kb/s
Count of elements : 1600
Stream size : 13.4 MiB (0%)
Language : Norwegian
Default : No
Forced : No

Text #4
ID : 6
Format : PGS
Codec ID : S_HDMV/PGS
Codec ID/Info : Picture based subtitle format used on BDs/HD-DVDs
Duration : 1 h 12 min
Bit rate : 22.5 kb/s
Count of elements : 1454
Stream size : 11.7 MiB (0%)
Language : Swedish
Default : No
Forced : No

Menu
00:00:00.000 : en:Chapter 01
00:10:34.008 : en:Chapter 02
00:20:18.008 : en:Chapter 03
00:27:43.996 : en:Chapter 04
00:39:36.958 : en:Chapter 05
00:48:37.957 : en:Chapter 06
01:00:10.982 : en:Chapter 07
01:09:42.929 : en:Chapter 08





Jitterbugs (1943)


Jitterbugs (1943)


Jitterbugs (1943)


Jitterbugs (1943)


Jitterbugs (1943)