Jezebel (1938)

Jezebel (1938)

Jezebel (1938)
BDRip 720p | MKV | 1 h 44 min | 5.46 GB | 992x720 | AVC@5998 kb/s | English DTS@1509 kb/s, 2 ch
BDRip 1080p | MKV | 1 h 44 min | 10.9 GB | 1488x1080 | AVC@13.5 Mb/s | English DTS@1509 kb/s, 2 ch
Subs: English
Genre: Drama | Romance

In 1850s Louisiana, a free-spirited Southern belle loses her fiancé due to her stubborn vanity and pride, and vows to win him back.

IMDB - Won 2 Oscars. Another 3 wins & 4 nominations.


General
Jezebel.1938.720p.BluRay.x264-SiNNERS.mkv
Format : Matroska
Format version : Version 4 / Version 2
File size : 5.46 GB
Duration : 1 h 44 min
Overall bit rate : 7509 kb/s
Encoded date : UTC 2019-09-08 19:58:33
Writing application : mkvmerge v21.0.0 ('Tardigrades Will Inherit The Earth') 64-bit
Writing library : libebml v1.3.5 + libmatroska v1.4.8

Video
ID : 1
Format : AVC
Format/Info : Advanced Video Codec
Format profile : High@L4.1
Format settings, CABAC : Yes
Format settings, ReFrames : 9 frames
Codec ID : V_MPEG4/ISO/AVC
Duration : 1 h 44 min
Bit rate : 5998 kb/s
Width : 992 pixels
Height : 720 pixels
Display aspect ratio : 1.378
Frame rate mode : Constant
Frame rate : 23.976 (24000/1001) FPS
Color space : YUV
Chroma subsampling : 4:2:0
Bit depth : 8 bits
Scan type : Progressive
Bits/(Pixel*Frame) : 0.350
Stream size : 4.36 GB (80%)
Writing library : x264 core 158 r2984 3759fcb
Encoding settings : cabac=1 / ref=9 / deblock=1:-3:-3 / analyse=0x3:0x113 / me=umh / subme=8 / psy=1 / psy_rd=1.00:0.00 / mixed_ref=1 / me_range=16 / chroma_me=1 / trellis=1 / 8x8dct=1 / cqm=0 / deadzone=21,11 / fast_pskip=0 / chroma_qp_offset=-2 / threads=22 / lookahead_threads=3 / sliced_threads=0 / nr=0 / decimate=1 / interlaced=0 / bluray_compat=0 / constrained_intra=0 / bframes=3 / b_pyramid=2 / b_adapt=1 / b_bias=0 / direct=1 / weightb=1 / open_gop=0 / weightp=2 / keyint=250 / keyint_min=23 / scenecut=40 / intra_refresh=0 / rc_lookahead=40 / rc=2pass / mbtree=1 / bitrate=5998 / ratetol=1.0 / qcomp=0.60 / qpmin=0 / qpmax=69 / qpstep=4 / cplxblur=20.0 / qblur=0.5 / ip_ratio=1.40 / aq=1:1.00
Language : English
Default : Yes
Forced : No

Audio
ID : 2
Format : DTS
Format/Info : Digital Theater Systems
Mode : 16
Format settings, Endianness : Big
Codec ID : A_DTS
Duration : 1 h 44 min
Bit rate mode : Constant
Bit rate : 1509 kb/s
Channel(s) : 2 channels
Channel positions : Front: L R
Sampling rate : 48.0 kHz
Frame rate : 93.750 FPS (512 spf)
Bit depth : 24 bits
Compression mode : Lossy
Stream size : 1.10 GB (20%)
Language : English
Default : Yes
Forced : No

Text #1
ID : 3
Format : UTF-8
Codec ID : S_TEXT/UTF8
Codec ID/Info : UTF-8 Plain Text
Duration : 1 h 40 min
Bit rate : 84 b/s
Count of elements : 1915
Stream size : 62.0 KiB (0%)
Language : English
Default : No
Forced : No

Text #2
ID : 4
Format : UTF-8
Codec ID : S_TEXT/UTF8
Codec ID/Info : UTF-8 Plain Text
Duration : 1 h 41 min
Bit rate : 84 b/s
Count of elements : 1961
Stream size : 63.1 KiB (0%)
Title : SDH
Language : English
Default : No
Forced : No

Menu
00:00:00.000 : en:00:00:00.000
00:01:09.069 : en:00:01:09.069
00:05:00.175 : en:00:05:00.175
00:09:52.383 : en:00:09:52.383
00:12:58.444 : en:00:12:58.444
00:15:31.097 : en:00:15:31.097
00:18:32.570 : en:00:18:32.570
00:25:05.921 : en:00:25:05.921
00:28:37.799 : en:00:28:37.799
00:32:49.926 : en:00:32:49.926
00:35:05.186 : en:00:35:05.186
00:37:25.410 : en:00:37:25.410
00:43:29.607 : en:00:43:29.607
00:48:53.097 : en:00:48:53.097
00:50:57.096 : en:00:50:57.096
00:56:26.383 : en:00:56:26.383
01:00:00.972 : en:01:00:00.972
01:05:59.747 : en:01:05:59.747
01:10:29.225 : en:01:10:29.225
01:12:52.493 : en:01:12:52.493
01:16:00.556 : en:01:16:00.556
01:19:32.851 : en:01:19:32.851
01:22:30.362 : en:01:22:30.362
01:27:24.698 : en:01:27:24.698
01:31:34.030 : en:01:31:34.030
01:36:31.995 : en:01:36:31.995
01:41:25.246 : en:01:41:25.246
01:43:15.398 : en:01:43:15.398


General
Jezebel.1938.1080p.BluRay.x264-SiNNERS.mkv
Format : Matroska
Format version : Version 4 / Version 2
File size : 10.9 GB
Duration : 1 h 44 min
Overall bit rate : 15.0 Mb/s
Encoded date : UTC 2019-09-08 20:03:14
Writing application : mkvmerge v21.0.0 ('Tardigrades Will Inherit The Earth') 64-bit
Writing library : libebml v1.3.5 + libmatroska v1.4.8

Video
ID : 1
Format : AVC
Format/Info : Advanced Video Codec
Format profile : High@L4.1
Format settings, CABAC : Yes
Format settings, ReFrames : 5 frames
Codec ID : V_MPEG4/ISO/AVC
Duration : 1 h 44 min
Bit rate : 13.5 Mb/s
Width : 1488 pixels
Height : 1080 pixels
Display aspect ratio : 1.378
Frame rate mode : Constant
Frame rate : 23.976 (24000/1001) FPS
Color space : YUV
Chroma subsampling : 4:2:0
Bit depth : 8 bits
Scan type : Progressive
Bits/(Pixel*Frame) : 0.351
Stream size : 9.83 GB (90%)
Writing library : x264 core 158 r2984 3759fcb
Encoding settings : cabac=1 / ref=5 / deblock=1:-3:-3 / analyse=0x3:0x113 / me=umh / subme=8 / psy=1 / psy_rd=1.00:0.00 / mixed_ref=1 / me_range=16 / chroma_me=1 / trellis=2 / 8x8dct=1 / cqm=0 / deadzone=21,11 / fast_pskip=0 / chroma_qp_offset=-2 / threads=24 / lookahead_threads=4 / sliced_threads=0 / nr=0 / decimate=1 / interlaced=0 / bluray_compat=0 / constrained_intra=0 / bframes=3 / b_pyramid=2 / b_adapt=1 / b_bias=0 / direct=1 / weightb=1 / open_gop=0 / weightp=2 / keyint=250 / keyint_min=23 / scenecut=40 / intra_refresh=0 / rc_lookahead=40 / rc=2pass / mbtree=1 / bitrate=13512 / ratetol=1.0 / qcomp=0.60 / qpmin=0 / qpmax=69 / qpstep=4 / cplxblur=20.0 / qblur=0.5 / ip_ratio=1.40 / aq=1:1.00
Language : English
Default : Yes
Forced : No

Audio
ID : 2
Format : DTS
Format/Info : Digital Theater Systems
Mode : 16
Format settings, Endianness : Big
Codec ID : A_DTS
Duration : 1 h 44 min
Bit rate mode : Constant
Bit rate : 1509 kb/s
Channel(s) : 2 channels
Channel positions : Front: L R
Sampling rate : 48.0 kHz
Frame rate : 93.750 FPS (512 spf)
Bit depth : 24 bits
Compression mode : Lossy
Stream size : 1.10 GB (10%)
Language : English
Default : Yes
Forced : No

Text #1
ID : 3
Format : UTF-8
Codec ID : S_TEXT/UTF8
Codec ID/Info : UTF-8 Plain Text
Duration : 1 h 40 min
Bit rate : 84 b/s
Count of elements : 1915
Stream size : 62.0 KiB (0%)
Language : English
Default : No
Forced : No

Text #2
ID : 4
Format : UTF-8
Codec ID : S_TEXT/UTF8
Codec ID/Info : UTF-8 Plain Text
Duration : 1 h 41 min
Bit rate : 84 b/s
Count of elements : 1961
Stream size : 63.1 KiB (0%)
Title : SDH
Language : English
Default : No
Forced : No

Menu
00:00:00.000 : en:00:00:00.000
00:01:09.069 : en:00:01:09.069
00:05:00.175 : en:00:05:00.175
00:09:52.383 : en:00:09:52.383
00:12:58.444 : en:00:12:58.444
00:15:31.097 : en:00:15:31.097
00:18:32.570 : en:00:18:32.570
00:25:05.921 : en:00:25:05.921
00:28:37.799 : en:00:28:37.799
00:32:49.926 : en:00:32:49.926
00:35:05.186 : en:00:35:05.186
00:37:25.410 : en:00:37:25.410
00:43:29.607 : en:00:43:29.607
00:48:53.097 : en:00:48:53.097
00:50:57.096 : en:00:50:57.096
00:56:26.383 : en:00:56:26.383
01:00:00.972 : en:01:00:00.972
01:05:59.747 : en:01:05:59.747
01:10:29.225 : en:01:10:29.225
01:12:52.493 : en:01:12:52.493
01:16:00.556 : en:01:16:00.556
01:19:32.851 : en:01:19:32.851
01:22:30.362 : en:01:22:30.362
01:27:24.698 : en:01:27:24.698
01:31:34.030 : en:01:31:34.030
01:36:31.995 : en:01:36:31.995
01:41:25.246 : en:01:41:25.246
01:43:15.398 : en:01:43:15.398



BDRip 720p Screenshots

Jezebel (1938)

Jezebel (1938)

Jezebel (1938)


BDRip 1080p Screenshots

Jezebel (1938)

Jezebel (1938)

Jezebel (1938)


Come Visit My Blog (•‿•)