Jerzy Hoffman Trilogia. Pan Wolodyjowski (1969)

Jerzy Hoffman Trilogia. Pan Wolodyjowski (1969)

Jerzy Hoffman Trilogia. Pan Wolodyjowski (1969)
BDRip 1080p | MKV | AVC, 1920x816, ~ 3.9 Mbps | 2hr 28mn | 5.63 GB | Polish (Polski): DTS, 2 ch, 1510 kbps
BDRip 720p | MKV | AVC, 1280x544, ~ 2.6 Mbps | 2hr 28mn | 3.18 GB | Polish (Polski): AC3, 2 ch, 448 kbps
Subtitles: English, French
Genre: Adventure, History, War



Director: Jerzy Hoffman
Writer: Jerzy Hoffman, Jerzy Lutowski
Stars: Tadeusz Lomnicki, Magdalena Zawadzka, Mieczyslaw Pawlikowski

In 1668 the Ottoman Empire decides to attack and invade the Polish-Lithuanian Commonwealth which is one of the few major European powers to still stand in the destructive path of the Ottomans.Having recently retired to a monastery,Polish Colonel Michael Wolodyjowski is no longer in active duty.However,the Polish king,Jan Sobieski knows that Colonel Wolodyjowski is an able commander and sends for him,recalling him to active duty.Joining his old comrades in arms,including the English noble Ketling Hassling of Elgin, Colonel Wolodyjowski takes command of the Polish defenses on the Eastern Frontier.He prepares for the arrival of the invading Ottoman armies and Tatar Hordes and waits.The fate of Christian Europe lies in his hands.

Extras:
- None




General
Unique ID : 189335411406136371583231308154190073263 (0x8E70AC80840B63018D59753E7AC28DAF)
Complete name : F:\JerzyHoffmanTrilogia.PanWolodyjowski.69.1p\JerzyHoffmanTrilogia.PanWolodyjowski.69.1p.mkv
Format : Matroska
Format version : Version 4
File size : 5.63 GiB
Duration : 2 h 28 min
Overall bit rate : 5 427 kb/s
Movie name : Release RSU75
Encoded date : UTC 2020-05-21 03:35:49
Writing application : mkvmerge v6.6.0 ('The Edge Of The In Between') built on Dec 1 2013 17:55:00
Writing library : libebml v1.3.0 + libmatroska v1.4.1

Video
ID : 1
Format : AVC
Format/Info : Advanced Video Codec
Format profile : High@L4.1
Format settings : CABAC / 4 Ref Frames
Format settings, CABAC : Yes
Format settings, Reference fra : 4 frames
Codec ID : V_MPEG4/ISO/AVC
Duration : 2 h 28 min
Bit rate : 3 900 kb/s
Width : 1 920 pixels
Height : 816 pixels
Display aspect ratio : 2.35:1
Frame rate mode : Constant
Frame rate : 25.000 FPS
Color space : YUV
Chroma subsampling : 4:2:0
Bit depth : 8 bits
Scan type : Progressive
Bits/(Pixel*Frame) : 0.100
Stream size : 3.95 GiB (70%)
Writing library : x264 core 148 r2643 5c65704
Encoding settings : cabac=1 / ref=4 / deblock=1:0:0 / analyse=0x3:0x113 / me=umh / subme=8 / psy=1 / psy_rd=1.00:0.00 / mixed_ref=1 / me_range=24 / chroma_me=1 / trellis=1 / 8x8dct=1 / cqm=0 / deadzone=21,11 / fast_pskip=1 / chroma_qp_offset=-2 / threads=3 / lookahead_threads=1 / sliced_threads=0 / nr=0 / decimate=1 / interlaced=0 / bluray_compat=0 / constrained_intra=0 / bframes=3 / b_pyramid=0 / b_adapt=2 / b_bias=0 / direct=3 / weightb=1 / open_gop=0 / weightp=2 / keyint=250 / keyint_min=25 / scenecut=40 / intra_refresh=0 / rc_lookahead=40 / rc=abr / mbtree=1 / bitrate=3900 / ratetol=1.0 / qcomp=0.60 / qpmin=10 / qpmax=51 / qpstep=4 / ip_ratio=1.41 / aq=1:1.00
Language : English
Default : Yes
Forced : No
Duration_Source : General_Duration

Audio
ID : 2
Format : DTS
Format/Info : Digital Theater Systems
Codec ID : A_DTS
Duration : 2 h 28 min
Bit rate mode : Constant
Bit rate : 1 509 kb/s
Channel(s) : 2 channels
Channel layout : Lt Rt
Sampling rate : 48.0 kHz
Frame rate : 93.750 FPS (512 SPF)
Bit depth : 24 bits
Compression mode : Lossy
Stream size : 1.57 GiB (28%)
Title : Stereo
Language : Polish
Default : Yes
Forced : No
Duration_Source : General_Duration

Text #1
ID : 3
Format : PGS
Muxing mode : zlib
Codec ID : S_HDMV/PGS
Codec ID/Info : Picture based subtitle format used on BDs/HD-DVDs
Language : English
Default : Yes
Forced : No

Text #2
ID : 4
Format : PGS
Muxing mode : zlib
Codec ID : S_HDMV/PGS
Codec ID/Info : Picture based subtitle format used on BDs/HD-DVDs
Language : French
Default : No
Forced : No

Menu
00:00:00.000 : en:Chapter 01
00:10:03.440 : en:Chapter 02
00:19:58.200 : en:Chapter 03
00:25:36.280 : en:Chapter 04
00:38:40.760 : en:Chapter 05
00:49:31.640 : en:Chapter 06
01:00:16.640 : en:Chapter 07
01:15:06.400 : en:Chapter 08
01:24:47.040 : en:Chapter 09
01:36:39.080 : en:Chapter 10
01:45:44.160 : en:Chapter 11
01:54:11.440 : en:Chapter 12
02:09:56.040 : en:Chapter 13
02:19:00.880 : en:Chapter 14





General
Unique ID : 210170504759090867650366256463937389378 (0x9E1D5DEA2903CD52803032A8AB75C342)
Complete name : F:\JerzyHoffmanTrilogia.PanWolodyjowski.69.7p\JerzyHoffmanTrilogia.PanWolodyjowski.69.7p.mkv
Format : Matroska
Format version : Version 4
File size : 3.18 GiB
Duration : 2 h 28 min
Overall bit rate : 3 067 kb/s
Movie name : Release RSU75
Encoded date : UTC 2020-05-21 17:52:25
Writing application : mkvmerge v6.6.0 ('The Edge Of The In Between') built on Dec 1 2013 17:55:00
Writing library : libebml v1.3.0 + libmatroska v1.4.1

Video
ID : 1
Format : AVC
Format/Info : Advanced Video Codec
Format profile : High@L4.1
Format settings : CABAC / 4 Ref Frames
Format settings, CABAC : Yes
Format settings, Reference fra : 4 frames
Codec ID : V_MPEG4/ISO/AVC
Duration : 2 h 28 min
Bit rate : 2 600 kb/s
Width : 1 280 pixels
Height : 544 pixels
Display aspect ratio : 2.35:1
Frame rate mode : Constant
Frame rate : 25.000 FPS
Color space : YUV
Chroma subsampling : 4:2:0
Bit depth : 8 bits
Scan type : Progressive
Bits/(Pixel*Frame) : 0.149
Stream size : 2.65 GiB (83%)
Writing library : x264 core 148 r2643 5c65704
Encoding settings : cabac=1 / ref=4 / deblock=1:0:0 / analyse=0x3:0x113 / me=umh / subme=8 / psy=1 / psy_rd=1.00:0.00 / mixed_ref=1 / me_range=24 / chroma_me=1 / trellis=1 / 8x8dct=1 / cqm=0 / deadzone=21,11 / fast_pskip=1 / chroma_qp_offset=-2 / threads=3 / lookahead_threads=1 / sliced_threads=0 / nr=0 / decimate=1 / interlaced=0 / bluray_compat=0 / constrained_intra=0 / bframes=3 / b_pyramid=0 / b_adapt=2 / b_bias=0 / direct=3 / weightb=1 / open_gop=0 / weightp=2 / keyint=250 / keyint_min=25 / scenecut=40 / intra_refresh=0 / rc_lookahead=40 / rc=abr / mbtree=1 / bitrate=2600 / ratetol=1.0 / qcomp=0.60 / qpmin=10 / qpmax=51 / qpstep=4 / ip_ratio=1.41 / aq=1:1.00
Language : English
Default : Yes
Forced : No
Duration_Source : General_Duration

Audio
ID : 2
Format : AC-3
Format/Info : Audio Coding 3
Commercial name : Dolby Digital
Codec ID : A_AC3
Duration : 2 h 28 min
Bit rate mode : Constant
Bit rate : 448 kb/s
Channel(s) : 2 channels
Channel layout : L R
Sampling rate : 44.1 kHz
Frame rate : 28.711 FPS (1536 SPF)
Compression mode : Lossy
Stream size : 476 MiB (15%)
Title : Stereo
Language : Polish
Service kind : Complete Main
Default : Yes
Forced : No
Duration_Source : General_Duration

Text #1
ID : 3
Format : PGS
Muxing mode : zlib
Codec ID : S_HDMV/PGS
Codec ID/Info : Picture based subtitle format used on BDs/HD-DVDs
Language : English
Default : Yes
Forced : No

Text #2
ID : 4
Format : PGS
Muxing mode : zlib
Codec ID : S_HDMV/PGS
Codec ID/Info : Picture based subtitle format used on BDs/HD-DVDs
Language : French
Default : No
Forced : No

Menu
00:00:00.000 : en:Chapter 01
00:10:03.440 : en:Chapter 02
00:19:58.200 : en:Chapter 03
00:25:36.280 : en:Chapter 04
00:38:40.760 : en:Chapter 05
00:49:31.640 : en:Chapter 06
01:00:16.640 : en:Chapter 07
01:15:06.400 : en:Chapter 08
01:24:47.040 : en:Chapter 09
01:36:39.080 : en:Chapter 10
01:45:44.160 : en:Chapter 11
01:54:11.440 : en:Chapter 12
02:09:56.040 : en:Chapter 13
02:19:00.880 : en:Chapter 14




Screenshots 1080p (click to enlarge to original size):

Jerzy Hoffman Trilogia. Pan Wolodyjowski (1969)

Jerzy Hoffman Trilogia. Pan Wolodyjowski (1969)

Jerzy Hoffman Trilogia. Pan Wolodyjowski (1969)



Screenshots 720p (click to enlarge to original size):

Jerzy Hoffman Trilogia. Pan Wolodyjowski (1969)






If you like this release please visit my blog
In it you will find releases of director Jerzy Hoffman