Inherit The Wind (1960) [Eureka!]

Inherit The Wind (1960) [Eureka!]

Inherit The Wind (1960) [Eureka!, Eureka Classics]
BDRip 1080p | MKV | AVC, 1800x1080, ~ 4.0 Mbps | 2hr 07mn | 3.98 GB | English: AC3, 2 ch, 448 kbps
BDRip 720p | MKV | AVC, 1200x720, ~ 2.9 Mbps | 2hr 07mn | 2.83 GB | English: AC3, 2 ch, 256 kbps
Subtitles: English
Genre: Biography, Drama, History



Director: Stanley Kramer
Writer: Nedrick Young (screenplay), Harold Jacob Smith (screenplay)
Stars: Spencer Tracy, Fredric March, Gene Kelly

Described by Steven Spielberg as “one of our great filmmakers, not just for the art and passion he put on screen, but for the impact he has made on the conscience of the world”, the films of producer and director Stanley Kramer (The Defiant Ones, Guess Who’s Coming to Dinner) frequently confronted social issues considered too controversial for the major studios. In Inherit the Wind he tackled the creationism vs. evolution debate.

When a teacher in a small Tennessee town is brought to trial for teaching Darwinism, attorney Henry Drummond (Spencer Tracy, Bad Day at Black Rock) faces off against fundamentalist leader Matthew Harrison Brady (Frederic March, Dr. Jekyll and Mr. Hyde) in an explosive battle of beliefs.

Also operating as a searing critique of McCarthyism, Inherit the Wind was nominated for multiple Academy Awards, and is rightfully recognised as one of the most entertaining, and provocative films of its era. Eureka Classics is proud to present Inherit the Wind for the first time on Blu-ray in the UK in a special Dual Format edition.

Extras:
- None




General
Unique ID : 241610241017243448185324943278751391541 (0xB5C470970850167C89FB3F4FC8649F35)
Complete name : F:\InheritTheWind.1960.1p\InheritTheWind.1960.1p.mkv
Format : Matroska
Format version : Version 4 / Version 2
File size : 3.98 GiB
Duration : 2 h 7 min
Overall bit rate : 4 451 kb/s
Movie name : Release RSU75
Encoded date : UTC 2020-03-09 04:47:22
Writing application : mkvmerge v6.6.0 ('The Edge Of The In Between') built on Dec 1 2013 17:55:00
Writing library : libebml v1.3.0 + libmatroska v1.4.1

Video
ID : 1
Format : AVC
Format/Info : Advanced Video Codec
Format profile : High@L4.1
Format settings : CABAC / 4 Ref Frames
Format settings, CABAC : Yes
Format settings, ReFrames : 4 frames
Codec ID : V_MPEG4/ISO/AVC
Duration : 2 h 7 min
Bit rate : 4 000 kb/s
Width : 1 800 pixels
Height : 1 080 pixels
Display aspect ratio : 5:3
Frame rate mode : Constant
Frame rate : 23.976 (23976/1000) FPS
Color space : YUV
Chroma subsampling : 4:2:0
Bit depth : 8 bits
Scan type : Progressive
Bits/(Pixel*Frame) : 0.086
Stream size : 3.50 GiB (88%)
Writing library : x264 core 148 r2643 5c65704
Encoding settings : cabac=1 / ref=4 / deblock=1:0:0 / analyse=0x3:0x113 / me=umh / subme=8 / psy=1 / psy_rd=1.00:0.00 / mixed_ref=1 / me_range=24 / chroma_me=1 / trellis=1 / 8x8dct=1 / cqm=0 / deadzone=21,11 / fast_pskip=1 / chroma_qp_offset=-2 / threads=3 / lookahead_threads=1 / sliced_threads=0 / nr=0 / decimate=1 / interlaced=0 / bluray_compat=0 / constrained_intra=0 / bframes=3 / b_pyramid=0 / b_adapt=2 / b_bias=0 / direct=3 / weightb=1 / open_gop=0 / weightp=2 / keyint=250 / keyint_min=25 / scenecut=40 / intra_refresh=0 / rc_lookahead=40 / rc=abr / mbtree=1 / bitrate=4000 / ratetol=1.0 / qcomp=0.60 / qpmin=10 / qpmax=51 / qpstep=4 / ip_ratio=1.41 / aq=1:1.00
Language : English
Default : Yes
Forced : No

Audio
ID : 2
Format : AC-3
Format/Info : Audio Coding 3
Commercial name : Dolby Digital
Codec ID : A_AC3
Duration : 2 h 7 min
Bit rate mode : Constant
Bit rate : 448 kb/s
Channel(s) : 2 channels
Channel layout : L R
Sampling rate : 44.1 kHz
Frame rate : 28.711 FPS (1536 SPF)
Bit depth : 16 bits
Compression mode : Lossy
Stream size : 410 MiB (10%)
Title : Stereo
Language : English
Service kind : Complete Main
Default : Yes
Forced : No

Text
ID : 3
Format : PGS
Muxing mode : zlib
Codec ID : S_HDMV/PGS
Codec ID/Info : Picture based subtitle format used on BDs/HD-DVDs
Language : English
Default : Yes
Forced : No

Menu
00:00:00.000 : en:Chapter 01
00:13:56.377 : en:Chapter 02
00:30:47.220 : en:Chapter 03
00:47:25.968 : en:Chapter 04
01:02:39.130 : en:Chapter 05
01:18:38.463 : en:Chapter 06
01:36:36.582 : en:Chapter 07
01:53:32.222 : en:Chapter 08





General
Unique ID : 172228739651856430747200365612493177997 (0x81920C77782A875CA380EC5EF768048D)
Complete name : F:\InheritTheWind.1960.7p\InheritTheWind.1960.7p.mkv
Format : Matroska
Format version : Version 4 / Version 2
File size : 2.83 GiB
Duration : 2 h 7 min
Overall bit rate : 3 163 kb/s
Movie name : Release RSU75
Encoded date : UTC 2020-03-09 04:36:11
Writing application : mkvmerge v6.6.0 ('The Edge Of The In Between') built on Dec 1 2013 17:55:00
Writing library : libebml v1.3.0 + libmatroska v1.4.1

Video
ID : 1
Format : AVC
Format/Info : Advanced Video Codec
Format profile : High@L4.1
Format settings : CABAC / 4 Ref Frames
Format settings, CABAC : Yes
Format settings, ReFrames : 4 frames
Codec ID : V_MPEG4/ISO/AVC
Duration : 2 h 7 min
Bit rate : 2 900 kb/s
Width : 1 200 pixels
Height : 720 pixels
Display aspect ratio : 5:3
Frame rate mode : Constant
Frame rate : 23.976 (23976/1000) FPS
Color space : YUV
Chroma subsampling : 4:2:0
Bit depth : 8 bits
Scan type : Progressive
Bits/(Pixel*Frame) : 0.140
Stream size : 2.54 GiB (90%)
Writing library : x264 core 148 r2643 5c65704
Encoding settings : cabac=1 / ref=4 / deblock=1:0:0 / analyse=0x3:0x113 / me=umh / subme=8 / psy=1 / psy_rd=1.00:0.00 / mixed_ref=1 / me_range=24 / chroma_me=1 / trellis=1 / 8x8dct=1 / cqm=0 / deadzone=21,11 / fast_pskip=1 / chroma_qp_offset=-2 / threads=3 / lookahead_threads=1 / sliced_threads=0 / nr=0 / decimate=1 / interlaced=0 / bluray_compat=0 / constrained_intra=0 / bframes=3 / b_pyramid=0 / b_adapt=2 / b_bias=0 / direct=3 / weightb=1 / open_gop=0 / weightp=2 / keyint=250 / keyint_min=25 / scenecut=40 / intra_refresh=0 / rc_lookahead=40 / rc=abr / mbtree=1 / bitrate=2900 / ratetol=1.0 / qcomp=0.60 / qpmin=10 / qpmax=51 / qpstep=4 / ip_ratio=1.41 / aq=1:1.00
Language : English
Default : Yes
Forced : No

Audio
ID : 2
Format : AC-3
Format/Info : Audio Coding 3
Commercial name : Dolby Digital
Codec ID : A_AC3
Duration : 2 h 7 min
Bit rate mode : Constant
Bit rate : 256 kb/s
Channel(s) : 2 channels
Channel layout : L R
Sampling rate : 44.1 kHz
Frame rate : 28.711 FPS (1536 SPF)
Bit depth : 16 bits
Compression mode : Lossy
Stream size : 234 MiB (8%)
Title : Stereo
Language : English
Service kind : Complete Main
Default : Yes
Forced : No

Text
ID : 3
Format : PGS
Muxing mode : zlib
Codec ID : S_HDMV/PGS
Codec ID/Info : Picture based subtitle format used on BDs/HD-DVDs
Language : English
Default : Yes
Forced : No

Menu
00:00:00.000 : en:Chapter 01
00:13:56.377 : en:Chapter 02
00:30:47.220 : en:Chapter 03
00:47:25.968 : en:Chapter 04
01:02:39.130 : en:Chapter 05
01:18:38.463 : en:Chapter 06
01:36:36.582 : en:Chapter 07
01:53:32.222 : en:Chapter 08




Screenshots 1080p (click to enlarge to original size):

Inherit The Wind (1960) [Eureka!]

Inherit The Wind (1960) [Eureka!]

Inherit The Wind (1960) [Eureka!]



Screenshots 720p (click to enlarge to original size):

Inherit The Wind (1960) [Eureka!]






If you like this release please visit my blog
In it you will find "Eureka!" releases