Im For The Hippopotamus / Io sto con gli ippopotami (1979)

Im For The Hippopotamus / Io sto con gli ippopotami (1979)

Im For The Hippopotamus / Io sto con gli ippopotami (1979)
BDRip 720p | MKV | 1280x720 | AVC@4771 kb/s | English (Dubbed) DTS@1509 kb/s
2 channels | 1 h 39 min | 4.37 GB
Genre: Action, Adventure, Comedy

In Africa, many years ago, Slim and Tom don't like it when a German tyrant, starts selling all of the African wildlife to Canadian Zoo's! Slim and Tom must teach this guy a lesson by beating the hell out of him and his gang, left and right!

IMDB - 1 win


General
Im.For.The.Hippopotamus.1979.DUBBED.720p.BluRay.x264-GUACAMOLE\gua-hippopotamus-720p.mkv
Format : Matroska
Format version : Version 4 / Version 2
File size : 4.37 GiB
Duration : 1 h 39 min
Overall bit rate : 6 282 kb/s
Encoded date : UTC 2017-09-14 19:21:52
Writing application : mkvmerge v9.0.1 ('Obstacles') 64bit
Writing library : libebml v1.3.3 + libmatroska v1.4.4

Video
ID : 1
Format : AVC
Format/Info : Advanced Video Codec
Format profile : High@L4.1
Format settings, CABAC : Yes
Format settings, ReFrames : 5 frames
Codec ID : V_MPEG4/ISO/AVC
Duration : 1 h 39 min
Bit rate : 4 771 kb/s
Width : 1 280 pixels
Height : 720 pixels
Display aspect ratio : 16:9
Frame rate mode : Constant
Frame rate : 23.976 (24000/1001) FPS
Color space : YUV
Chroma subsampling : 4:2:0
Bit depth : 8 bits
Scan type : Progressive
Bits/(Pixel*Frame) : 0.216
Stream size : 3.32 GiB (76%)
Writing library : x264 core 150 r2833 df79067
Encoding settings : cabac=1 / ref=5 / deblock=1:0:0 / analyse=0x3:0x113 / me=umh / subme=8 / psy=1 / psy_rd=1.00:0.00 / mixed_ref=1 / me_range=16 / chroma_me=1 / trellis=2 / 8x8dct=1 / cqm=0 / deadzone=21,11 / fast_pskip=0 / chroma_qp_offset=-2 / threads=12 / lookahead_threads=2 / sliced_threads=0 / nr=0 / decimate=1 / interlaced=0 / bluray_compat=0 / constrained_intra=0 / bframes=3 / b_pyramid=2 / b_adapt=1 / b_bias=0 / direct=1 / weightb=1 / open_gop=0 / weightp=2 / keyint=250 / keyint_min=23 / scenecut=40 / intra_refresh=0 / rc_lookahead=50 / rc=2pass / mbtree=1 / bitrate=4771 / ratetol=1.0 / qcomp=0.60 / qpmin=0 / qpmax=69 / qpstep=4 / cplxblur=20.0 / qblur=0.5 / ip_ratio=1.40 / aq=1:1.00
Default : Yes
Forced : No

Audio
ID : 2
Format : DTS
Format/Info : Digital Theater Systems
Mode : 16
Format settings, Endianness : Big
Codec ID : A_DTS
Duration : 1 h 39 min
Bit rate mode : Constant
Bit rate : 1 509 kb/s
Channel(s) : 2 channels
Channel positions : Front: L R
Sampling rate : 48.0 kHz
Frame rate : 93.750 FPS (512 spf)
Bit depth : 24 bits
Compression mode : Lossy
Stream size : 1.05 GiB (24%)
Language : English
Default : Yes
Forced : No


BDRip 720p Screenshots

Im For The Hippopotamus / Io sto con gli ippopotami (1979)

Im For The Hippopotamus / Io sto con gli ippopotami (1979)

Im For The Hippopotamus / Io sto con gli ippopotami (1979)

Im For The Hippopotamus / Io sto con gli ippopotami (1979)


Come Visit My Blog (•‿•)