How the West Was Won (1962)

How the West Was Won (1962)

How the West Was Won (1962)
BDRip | MKV | 1920x660 | English | H265 @ 1986 kbps | AC-3 @ 640 kbps | 2 h 44 min | 3.08 GiB
Subtitles: English
Genre: Western

The epic tale of the development of the American West from the 1830s through the Civil War to the end of the century, as seen through the eyes of one pioneer family.

9d12caab4b3245129bb234b7a381b671.mkv (3.1 GB)



General
Unique ID : 318301174945325616842054119323707855269 (0xEF7693900126DE74A818349C85FF51A5)
Complete name : ./9d12caab4b3245129bb234b7a381b671.mkv
Format : Matroska
Format version : Version 4 / Version 2
File size : 3.08 GiB
Duration : 2 h 44 min
Overall bit rate : 2 680 kb/s
Encoded date : UTC 2019-03-19 23:37:19
Writing application : HandBrake 1.2.2 2019022300
Writing library : Lavf58.20.100
ErrorDetectionType : Per level 1

Video
ID : 1
Format : HEVC
Format/Info : High Efficiency Video Coding
Format profile : Main 10@L4@Main
Codec ID : V_MPEGH/ISO/HEVC
Duration : 2 h 44 min
Bit rate : 1 986 kb/s
Width : 1 920 pixels
Height : 660 pixels
Display aspect ratio : 2.909
Frame rate mode : Constant
Frame rate : 23.976 (24000/1001) FPS
Color space : YUV
Chroma subsampling : 4:2:0
Bit depth : 10 bits
Bits/(Pixel*Frame) : 0.065
Stream size : 2.28 GiB (74%)
Writing library : x265 2.9:[Windows][GCC 8.2.0][64 bit] 10bit
Encoding settings : cpuid=1111039 / frame-threads=4 / numa-pools=16 / wpp / no-pmode / no-pme / no-psnr / no-ssim / log-level=2 / input-csp=1 / input-res=1920x660 / interlace=0 / total-frames=0 / level-idc=0 / high-tier=1 / uhd-bd=0 / ref=3 / no-allow-non-conformance / no-repeat-headers / annexb / no-aud / no-hrd / info / hash=0 / no-temporal-layers / open-gop / min-keyint=24 / keyint=240 / gop-lookahead=0 / bframes=4 / b-adapt=2 / b-pyramid / bframe-bias=0 / rc-lookahead=20 / lookahead-slices=0 / scenecut=40 / radl=0 / no-intra-refresh / ctu=64 / min-cu-size=8 / no-rect / no-amp / max-tu-size=32 / tu-inter-depth=1 / tu-intra-depth=1 / limit-tu=0 / rdoq-level=0 / dynamic-rd=0.00 / no-ssim-rd / signhide / no-tskip / nr-intra=0 / nr-inter=0 / no-constrained-intra / strong-intra-smoothing / max-merge=2 / limit-refs=3 / no-limit-modes / me=1 / subme=2 / merange=57 / temporal-mvp / weightp / no-weightb / no-analyze-src-pics / deblock=0:0 / sao / no-sao-non-deblock / rd=3 / no-early-skip / rskip / no-fast-intra / no-tskip-fast / no-cu-lossless / no-b-intra / no-splitrd-skip / rdpenalty=0 / psy-rd=2.00 / psy-rdoq=0.00 / no-rd-refine / no-lossless / cbqpoffs=0 / crqpoffs=0 / rc=crf / crf=23.0 / qcomp=0.60 / qpstep=4 / stats-write=0 / stats-read=0 / ipratio=1.40 / pbratio=1.30 / aq-mode=1 / aq-strength=1.00 / cutree / zone-count=0 / no-strict-cbr / qg-size=32 / no-rc-grain / qpmax=69 / qpmin=0 / no-const-vbv / sar=1 / overscan=0 / videoformat=5 / range=0 / colorprim=1 / transfer=1 / colormatrix=1 / chromaloc=0 / display-window=0 / max-cll=0,0 / min-luma=0 / max-luma=1023 / log2-max-poc-lsb=8 / vui-timing-info / vui-hrd-info / slices=1 / no-opt-qp-pps / no-opt-ref-list-length-pps / no-multi-pass-opt-rps / scenecut-bias=0.05 / no-opt-cu-delta-qp / no-aq-motion / no-hdr / no-hdr-opt / no-dhdr10-opt / no-idr-recovery-sei / analysis-reuse-level=5 / scale-factor=0 / refine-intra=0 / refine-inter=0 / refine-mv=0 / no-limit-sao / ctu-info=0 / no-lowpass-dct / refine-mv-type=0 / copy-pic=1 / max-ausize-factor=1.0 / no-dynamic-refine / no-single-sei
Default : Yes
Forced : No
Color range : Limited
Color primaries : BT.709
Transfer characteristics : BT.709
Matrix coefficients : BT.709

Audio
ID : 2
Format : AC-3
Format/Info : Audio Coding 3
Format settings, Endianness : Big
Codec ID : A_AC3
Duration : 2 h 44 min
Bit rate mode : Constant
Bit rate : 640 kb/s
Channel(s) : 6 channels
Channel positions : Front: L C R, Side: L R, LFE
Sampling rate : 48.0 kHz
Frame rate : 31.250 FPS (1536 SPF)
Bit depth : 16 bits
Compression mode : Lossy
Stream size : 754 MiB (24%)
Title : Surround
Language : English
Service kind : Complete Main
Default : Yes
Forced : No

Text
ID : 3
Format : PGS
Codec ID : S_HDMV/PGS
Codec ID/Info : Picture based subtitle format used on BDs/HD-DVDs
Duration : 2 h 44 min
Language : English
Default : No
Forced : No

Menu
00:00:00.000 : :Chapter 1
00:04:32.272 : :Chapter 2
00:07:40.460 : :Chapter 3
00:11:00.869 : :Chapter 4
00:15:25.383 : :Chapter 5
00:19:51.941 : :Chapter 6
00:25:24.690 : :Chapter 7
00:27:54.006 : :Chapter 8
00:32:41.877 : :Chapter 9
00:38:38.066 : :Chapter 10
00:43:11.881 : :Chapter 11
00:48:17.019 : :Chapter 12
00:53:25.077 : :Chapter 13
00:58:11.655 : :Chapter 14
01:03:46.656 : :Chapter 15
01:05:48.695 : :Chapter 16
01:08:02.912 : :Chapter 17
01:12:48.155 : :Chapter 18
01:15:53.049 : :Chapter 19
01:16:58.197 : :Chapter 20
01:20:07.678 : :Chapter 21
01:24:03.789 : :Chapter 22
01:24:42.744 : :Chapter 23
01:29:24.860 : :Chapter 24
01:37:09.073 : :Chapter 25
01:42:06.871 : :Chapter 26
01:45:14.558 : :Chapter 27
01:50:59.278 : :Chapter 28
01:54:36.286 : :Chapter 29
01:58:44.868 : :Chapter 30
02:05:02.996 : :Chapter 31
02:10:19.061 : :Chapter 32
02:12:57.845 : :Chapter 33
02:16:14.083 : :Chapter 34
02:20:33.800 : :Chapter 35
02:25:26.051 : :Chapter 36
02:29:25.623 : :Chapter 37
02:33:48.553 : :Chapter 38
02:37:01.162 : :Chapter 39
02:39:00.740 : :Chapter 40
02:42:00.711 : :Chapter 41





How the West Was Won (1962)


How the West Was Won (1962)


How the West Was Won (1962)


How the West Was Won (1962)


How the West Was Won (1962)