House of Games (1987) [Criterion Collection]

House of Games (1987) [Criterion Collection]

House of Games (1987) [Criterion Collection, Spine #399]
BDRip 1080p | MKV | AVC 1920x1080, ~ 4.1 Mbps | 1hr 41mn | 3.35 GB
English: AC3, 1 ch, 448 kbps; English (Commentary): AC3, 2 ch, 192 kbps
BDRip 720p | MKV | AVC 1280x720, ~ 3.0 Mbps | 2hr 08mn | 2.44 GB
English: AC3, 1 ch, 256 kbps; English (Commentary): AC3, 2 ch, 192 kbps
Subtitles: English
Genre: Crime, Thriller
IMDB Rating: 7.3/10 (18.814 votes)


Director: David Mamet
Writer: David Mamet (screenplay), Jonathan Katz (story)
Stars: Lindsay Crouse, Joe Mantegna, Mike Nussbaum

The Pulitzer Prize–winning playwright and screenwriter David Mamet sat in the director’s chair for the first time for this sly, merciless thriller. Lindsay Crouse stars as a best-selling author and therapist who wants to help a client by making restitution for the money he owes to a gambler. After she meets the attractive cardsharp (Joe Mantegna), her own compulsions take hold as he lures her into his world of high-stakes deception. Packed with razor-edged dialogue delivered with even-keeled precision by a cast of Mamet regulars, House of Games is as psychologically acute as it is full of twists and turns, a rich character study told with the cold calculation of a career con artist targeting his next mark.

Extras:
- Audio commentary from 2007 featuring director David Mamet and consultant and actor Ricky Jay




General
Unique ID : 245831814828864498910193165848758182267 (0xB8F17C3FA5FA9BC294F066743EAFE17B)
Complete name : F:\HouseOfGames.1987.Cr.1p\HouseOfGames.1987.Cr.1p.mkv
Format : Matroska
Format version : Version 4 / Version 2
File size : 3.35 GiB
Duration : 1 h 41 min
Overall bit rate : 4 713 kb/s
Movie name : Release RSU75
Encoded date : UTC 2019-06-03 09:51:03
Writing application : mkvmerge v6.6.0 ('The Edge Of The In Between') built on Dec 1 2013 17:55:00
Writing library : libebml v1.3.0 + libmatroska v1.4.1

Video
ID : 1
Format : AVC
Format/Info : Advanced Video Codec
Format profile : High@L4.1
Format settings : CABAC / 4 Ref Frames
Format settings, CABAC : Yes
Format settings, ReFrames : 4 frames
Codec ID : V_MPEG4/ISO/AVC
Duration : 1 h 41 min
Bit rate : 4 100 kb/s
Width : 1 920 pixels
Height : 1 080 pixels
Display aspect ratio : 16:9
Frame rate mode : Constant
Frame rate : 23.976 (23976/1000) FPS
Color space : YUV
Chroma subsampling : 4:2:0
Bit depth : 8 bits
Scan type : Progressive
Bits/(Pixel*Frame) : 0.082
Stream size : 2.83 GiB (84%)
Writing library : x264 core 148 r2643 5c65704
Encoding settings : cabac=1 / ref=4 / deblock=1:0:0 / analyse=0x3:0x113 / me=umh / subme=8 / psy=1 / psy_rd=1.00:0.00 / mixed_ref=1 / me_range=24 / chroma_me=1 / trellis=1 / 8x8dct=1 / cqm=0 / deadzone=21,11 / fast_pskip=1 / chroma_qp_offset=-2 / threads=3 / lookahead_threads=1 / sliced_threads=0 / nr=0 / decimate=1 / interlaced=0 / bluray_compat=0 / constrained_intra=0 / bframes=3 / b_pyramid=0 / b_adapt=2 / b_bias=0 / direct=3 / weightb=1 / open_gop=0 / weightp=2 / keyint=250 / keyint_min=25 / scenecut=40 / intra_refresh=0 / rc_lookahead=40 / rc=abr / mbtree=1 / bitrate=4100 / ratetol=1.0 / qcomp=0.60 / qpmin=10 / qpmax=51 / qpstep=4 / ip_ratio=1.41 / aq=1:1.00
Language : English
Default : Yes
Forced : No

Audio #1
ID : 2
Format : AC-3
Format/Info : Audio Coding 3
Commercial name : Dolby Digital
Codec ID : A_AC3
Duration : 1 h 41 min
Bit rate mode : Constant
Bit rate : 448 kb/s
Channel(s) : 1 channel
Channel layout : C
Sampling rate : 44.1 kHz
Frame rate : 28.711 FPS (1536 SPF)
Bit depth : 16 bits
Compression mode : Lossy
Stream size : 327 MiB (10%)
Language : English
Service kind : Complete Main
Default : Yes
Forced : No

Audio #2
ID : 3
Format : AC-3
Format/Info : Audio Coding 3
Commercial name : Dolby Digital
Codec ID : A_AC3
Duration : 1 h 41 min
Bit rate mode : Constant
Bit rate : 192 kb/s
Channel(s) : 2 channels
Channel layout : L R
Sampling rate : 48.0 kHz
Frame rate : 31.250 FPS (1536 SPF)
Bit depth : 16 bits
Compression mode : Lossy
Stream size : 140 MiB (4%)
Title : Commentary
Language : English
Service kind : Complete Main
Default : No
Forced : No

Text
ID : 4
Format : PGS
Muxing mode : zlib
Codec ID : S_HDMV/PGS
Codec ID/Info : Picture based subtitle format used on BDs/HD-DVDs
Language : English
Default : Yes
Forced : No

Menu
00:00:00.000 : en:Chapter 01
00:01:48.566 : en:Chapter 02
00:06:19.045 : en:Chapter 03
00:10:50.191 : en:Chapter 04
00:18:18.680 : en:Chapter 05
00:23:25.153 : en:Chapter 06
00:30:57.272 : en:Chapter 07
00:36:11.210 : en:Chapter 08
00:40:13.953 : en:Chapter 09
00:43:24.852 : en:Chapter 10
00:46:51.850 : en:Chapter 11
00:49:13.241 : en:Chapter 12
00:52:38.572 : en:Chapter 13
00:56:01.858 : en:Chapter 14
01:01:08.122 : en:Chapter 15
01:07:10.693 : en:Chapter 16
01:10:25.971 : en:Chapter 17
01:14:24.460 : en:Chapter 18
01:16:06.562 : en:Chapter 19
01:23:02.394 : en:Chapter 20
01:27:29.661 : en:Chapter 21
01:35:57.793 : en:Chapter 22





General
Unique ID : 218788828671112204359899574785778494582 (0xA499321700FA0462B10F95C70FF5AC76)
Complete name : F:\HouseOfGames.1987.Cr.7p\HouseOfGames.1987.Cr.7p.mkv
Format : Matroska
Format version : Version 4 / Version 2
File size : 2.44 GiB
Duration : 1 h 41 min
Overall bit rate : 3 428 kb/s
Movie name : Release RSU75
Encoded date : UTC 2019-06-03 09:57:00
Writing application : mkvmerge v6.6.0 ('The Edge Of The In Between') built on Dec 1 2013 17:55:00
Writing library : libebml v1.3.0 + libmatroska v1.4.1

Video
ID : 1
Format : AVC
Format/Info : Advanced Video Codec
Format profile : High@L4.1
Format settings : CABAC / 4 Ref Frames
Format settings, CABAC : Yes
Format settings, ReFrames : 4 frames
Codec ID : V_MPEG4/ISO/AVC
Duration : 1 h 41 min
Bit rate : 3 000 kb/s
Width : 1 280 pixels
Height : 720 pixels
Display aspect ratio : 16:9
Frame rate mode : Constant
Frame rate : 23.976 (23976/1000) FPS
Color space : YUV
Chroma subsampling : 4:2:0
Bit depth : 8 bits
Scan type : Progressive
Bits/(Pixel*Frame) : 0.136
Stream size : 2.07 GiB (85%)
Writing library : x264 core 148 r2643 5c65704
Encoding settings : cabac=1 / ref=4 / deblock=1:0:0 / analyse=0x3:0x113 / me=umh / subme=8 / psy=1 / psy_rd=1.00:0.00 / mixed_ref=1 / me_range=24 / chroma_me=1 / trellis=1 / 8x8dct=1 / cqm=0 / deadzone=21,11 / fast_pskip=1 / chroma_qp_offset=-2 / threads=3 / lookahead_threads=1 / sliced_threads=0 / nr=0 / decimate=1 / interlaced=0 / bluray_compat=0 / constrained_intra=0 / bframes=3 / b_pyramid=0 / b_adapt=2 / b_bias=0 / direct=3 / weightb=1 / open_gop=0 / weightp=2 / keyint=250 / keyint_min=25 / scenecut=40 / intra_refresh=0 / rc_lookahead=40 / rc=abr / mbtree=1 / bitrate=3000 / ratetol=1.0 / qcomp=0.60 / qpmin=10 / qpmax=51 / qpstep=4 / ip_ratio=1.41 / aq=1:1.00
Language : English
Default : Yes
Forced : No

Audio #1
ID : 2
Format : AC-3
Format/Info : Audio Coding 3
Commercial name : Dolby Digital
Codec ID : A_AC3
Duration : 1 h 41 min
Bit rate mode : Constant
Bit rate : 256 kb/s
Channel(s) : 1 channel
Channel layout : C
Sampling rate : 44.1 kHz
Frame rate : 28.711 FPS (1536 SPF)
Bit depth : 16 bits
Compression mode : Lossy
Stream size : 187 MiB (7%)
Language : English
Service kind : Complete Main
Default : Yes
Forced : No

Audio #2
ID : 3
Format : AC-3
Format/Info : Audio Coding 3
Commercial name : Dolby Digital
Codec ID : A_AC3
Duration : 1 h 41 min
Bit rate mode : Constant
Bit rate : 192 kb/s
Channel(s) : 2 channels
Channel layout : L R
Sampling rate : 48.0 kHz
Frame rate : 31.250 FPS (1536 SPF)
Bit depth : 16 bits
Compression mode : Lossy
Stream size : 140 MiB (6%)
Title : Commentary
Language : English
Service kind : Complete Main
Default : No
Forced : No

Text
ID : 4
Format : PGS
Muxing mode : zlib
Codec ID : S_HDMV/PGS
Codec ID/Info : Picture based subtitle format used on BDs/HD-DVDs
Language : English
Default : Yes
Forced : No

Menu
00:00:00.000 : en:Chapter 01
00:01:48.566 : en:Chapter 02
00:06:19.045 : en:Chapter 03
00:10:50.191 : en:Chapter 04
00:18:18.680 : en:Chapter 05
00:23:25.153 : en:Chapter 06
00:30:57.272 : en:Chapter 07
00:36:11.210 : en:Chapter 08
00:40:13.953 : en:Chapter 09
00:43:24.852 : en:Chapter 10
00:46:51.850 : en:Chapter 11
00:49:13.241 : en:Chapter 12
00:52:38.572 : en:Chapter 13
00:56:01.858 : en:Chapter 14
01:01:08.122 : en:Chapter 15
01:07:10.693 : en:Chapter 16
01:10:25.971 : en:Chapter 17
01:14:24.460 : en:Chapter 18
01:16:06.562 : en:Chapter 19
01:23:02.394 : en:Chapter 20
01:27:29.661 : en:Chapter 21
01:35:57.793 : en:Chapter 22




Screenshots 1080p (click to enlarge to original size):

House of Games (1987) [Criterion Collection]

House of Games (1987) [Criterion Collection]

House of Games (1987) [Criterion Collection]


House of Games (1987) [Criterion Collection]



Screenshots 720p (click to enlarge to original size):

House of Games (1987) [Criterion Collection]




–––––––––––––––––––––––––––––––––––––––-
>>> "Criterion Collection" <<< OR >>> "BDRip" <<< OR >>> "Criterion Collection, BDRip" <<<
–––––––––––––––––––––––––––––––––––––––-
>>> Visit Blog RSU75 Here <<<
–––––––––––––––––––––––––––––––––––––––-