Hotel Terminus (1988) [Repost]

Hotel Terminus (1988) [Repost]

Hotel Terminus (1988)
DVDRip | 648 x 472 | .MKV/AVC @ 2500 Kbps | 4h 26mn | 5.02 GB
Audio: French, German AAC 192 Kbps, 2 channels | Subs: English
Genre: Documentary, History

Having been denied an Oscar for The Sorrow and the Pity, Marcel Ophuls finally received his due reward for this damning study of the unholy alliance of political expediency and anti-Semitic corruption that allowed former Gestapo chief Klaus Barbie (the so-called "Butcher of Lyons") to spend over 30 contented years in Bolivia, in spite of the enormity of his crimes against humanity. In the course of interviews with victims, enemies, collaborators and others, it becomes clear that Barbie had many willing accomplices - and only some wore Nazi uniforms. An epic historical documentary, perhaps, but also a moral indictment of timeless resonance (Radio Times review). French and German soundtrack with fixed English subtitles for non-English dialogue only.

also You can look my other last: History-posts

General
Unique ID : 186633220453583859771889157930536644700 (0x8C684033B383C02C9B4702099AE7B05C)
Complete name : Hotel.Terminus.1.of.2.mkv
Format : Matroska
Format version : Version 2
File size : 2.60 GiB
Duration : 2 h 18 min
Overall bit rate : 2 695 kb/s
Encoded date : UTC 2014-11-09 02:21:30
Writing application : mkvmerge v7.0.0 ('Where We Going') 32bit built on Jun 9 2014 15:08:34
Writing library : libebml v1.3.0 + libmatroska v1.4.1

Video
ID : 1
Format : AVC
Format/Info : Advanced Video Codec
Format profile : High@L4
Format settings, CABAC : Yes
Format settings, ReFrames : 4 frames
Codec ID : V_MPEG4/ISO/AVC
Duration : 2 h 18 min
Bit rate : 2 500 kb/s
Width : 648 pixels
Height : 472 pixels
Display aspect ratio : 1.373
Frame rate mode : Constant
Frame rate : 29.970 (30000/1001) FPS
Color space : YUV
Chroma subsampling : 4:2:0
Bit depth : 8 bits
Scan type : Progressive
Bits/(Pixel*Frame) : 0.273
Stream size : 2.42 GiB (93%)
Writing library : x264 core 142 r2431 ac76440
Encoding settings : cabac=1 / ref=3 / deblock=1:0:0 / analyse=0x3:0x113 / me=hex / subme=7 / psy=1 / psy_rd=1.00:0.00 / mixed_ref=1 / me_range=16 / chroma_me=1 / trellis=1 / 8x8dct=1 / cqm=0 / deadzone=21,11 / fast_pskip=1 / chroma_qp_offset=-2 / threads=12 / lookahead_threads=2 / sliced_threads=0 / nr=0 / decimate=1 / interlaced=0 / bluray_compat=0 / constrained_intra=0 / bframes=3 / b_pyramid=2 / b_adapt=1 / b_bias=0 / direct=1 / weightb=1 / open_gop=0 / weightp=2 / keyint=300 / keyint_min=29 / scenecut=40 / intra_refresh=0 / rc_lookahead=40 / rc=2pass / mbtree=1 / bitrate=2500 / ratetol=1.0 / qcomp=0.60 / qpmin=0 / qpmax=69 / qpstep=4 / cplxblur=20.0 / qblur=0.5 / vbv_maxrate=25000 / vbv_bufsize=31250 / nal_hrd=none / filler=0 / ip_ratio=1.40 / aq=1:1.00
Default : Yes
Forced : No

Audio
ID : 2
Format : AAC
Format/Info : Advanced Audio Codec
Format profile : LC
Codec ID : A_AAC
Duration : 2 h 18 min
Bit rate : 192 kb/s
Channel(s) : 2 channels
Channel positions : Front: L R
Sampling rate : 48.0 kHz
Frame rate : 46.875 FPS (1024 spf)
Compression mode : Lossy
Delay relative to video : 9 ms
Stream size : 190 MiB (7%)
Default : Yes
Forced : No

Menu
00:00:00.000 : en:00:00:00.000
00:05:31.133 : en:00:05:31.133
00:15:28.999 : en:00:15:28.999
00:19:37.199 : en:00:19:37.199
00:38:25.465 : en:00:38:25.465
00:53:51.931 : en:00:53:51.931
01:22:33.597 : en:01:22:33.597
Screenshots

Hotel Terminus (1988) [Repost]

Hotel Terminus (1988) [Repost]

Hotel Terminus (1988) [Repost]

Hotel Terminus (1988) [Repost]

Welcome to my blog - daily update!

Hotel Terminus (1988) [Repost]