Hopelessly Lost / Sovsem Propashchiy / Совсем пропащий (1973)

Hopelessly Lost / Sovsem Propashchiy / Совсем пропащий (1973)

Hopelessly Lost / Sovsem Propashchiy / Совсем пропащий (1973)
DVDRip | MKV | AVC, 720x460, ~ 1.7 Mbps | 1hr 32mn | 1.55 GB
Russian (Русский): AC3, 6 ch, 448 kbps \ AC3, 1 ch, 224 kbps | Subtitle: English
Genre: Adventure



Directors: Georgiy Daneliya
Writers: Georgiy Daneliya (screenplay), Viktoriya Tokareva (screenplay)
Stars: Roman Madyanov, Feliks Imokuede, Evgeniy Leonov

Country: Russia (Россия)

This adaptation of Twain's masterpiece still is absolutely warm without being completely married to retelling the book line by line. Despite being on the other side of the world, the tone and the feel is lovingly authentic while still giving taste of the Soviet Georgian culture.



General
Unique ID : 174803353465532472686398878258935464993 (0x8381E6BA6866905480289D9B05718421)
Complete name : F:\HopelesslyLost.1973.Dr\HopelesslyLost.1973.Dr.mkv
Format : Matroska
Format version : Version 4 / Version 2
File size : 1.55 GiB
Duration : 1 h 32 min
Overall bit rate : 2 382 kb/s
Movie name : Release RSU75
Encoded date : UTC 2020-02-28 03:22:53
Writing application : mkvmerge v6.6.0 ('The Edge Of The In Between') built on Dec 1 2013 17:55:00
Writing library : libebml v1.3.0 + libmatroska v1.4.1

Video
ID : 1
Format : AVC
Format/Info : Advanced Video Codec
Format profile : High@L4.1
Format settings : CABAC / 4 Ref Frames
Format settings, CABAC : Yes
Format settings, ReFrames : 4 frames
Codec ID : V_MPEG4/ISO/AVC
Duration : 1 h 32 min
Bit rate : 1 700 kb/s
Width : 720 pixels
Height : 460 pixels
Display aspect ratio : 5:3
Frame rate mode : Constant
Frame rate : 25.000 FPS
Color space : YUV
Chroma subsampling : 4:2:0
Bit depth : 8 bits
Scan type : Progressive
Bits/(Pixel*Frame) : 0.205
Stream size : 1.08 GiB (70%)
Writing library : x264 core 148 r2643 5c65704
Encoding settings : cabac=1 / ref=4 / deblock=1:0:0 / analyse=0x3:0x113 / me=umh / subme=8 / psy=1 / psy_rd=1.00:0.00 / mixed_ref=1 / me_range=24 / chroma_me=1 / trellis=1 / 8x8dct=1 / cqm=0 / deadzone=21,11 / fast_pskip=1 / chroma_qp_offset=-2 / threads=3 / lookahead_threads=1 / sliced_threads=0 / nr=0 / decimate=1 / interlaced=0 / bluray_compat=0 / constrained_intra=0 / bframes=3 / b_pyramid=0 / b_adapt=2 / b_bias=0 / direct=3 / weightb=1 / open_gop=0 / weightp=2 / keyint=250 / keyint_min=25 / scenecut=40 / intra_refresh=0 / rc_lookahead=40 / rc=abr / mbtree=1 / bitrate=1700 / ratetol=1.0 / qcomp=0.60 / qpmin=10 / qpmax=51 / qpstep=4 / ip_ratio=1.41 / aq=1:1.00
Language : English
Default : Yes
Forced : No

Audio #1
ID : 2
Format : AC-3
Format/Info : Audio Coding 3
Commercial name : Dolby Digital
Codec ID : A_AC3
Duration : 1 h 32 min
Bit rate mode : Constant
Bit rate : 448 kb/s
Channel(s) : 6 channels
Channel layout : L R C LFE Ls Rs
Sampling rate : 48.0 kHz
Frame rate : 31.250 FPS (1536 SPF)
Bit depth : 16 bits
Compression mode : Lossy
Stream size : 298 MiB (19%)
Title : Surround 5.1
Language : Russian
Service kind : Complete Main
Default : Yes
Forced : No

Audio #2
ID : 3
Format : AC-3
Format/Info : Audio Coding 3
Commercial name : Dolby Digital
Codec ID : A_AC3
Duration : 1 h 32 min
Bit rate mode : Constant
Bit rate : 224 kb/s
Channel(s) : 1 channel
Channel layout : C
Sampling rate : 48.0 kHz
Frame rate : 31.250 FPS (1536 SPF)
Bit depth : 16 bits
Compression mode : Lossy
Stream size : 149 MiB (9%)
Title : Mono
Language : Russian
Service kind : Complete Main
Default : No
Forced : No

Text
ID : 4
Format : VobSub
Muxing mode : zlib
Codec ID : S_VOBSUB
Codec ID/Info : Picture based subtitle format used on DVDs
Language : English
Default : Yes
Forced : No

Menu
00:00:00.080 : en:Chapter 01
00:02:00.080 : en:Chapter 02
00:08:08.480 : en:Chapter 03
00:12:08.480 : en:Chapter 04
00:17:57.680 : en:Chapter 05
00:20:12.080 : en:Chapter 06
00:23:47.480 : en:Chapter 07
00:28:04.880 : en:Chapter 08
00:35:48.680 : en:Chapter 09
00:41:56.480 : en:Chapter 10
00:49:36.680 : en:Chapter 11
00:57:39.080 : en:Chapter 12
01:10:09.680 : en:Chapter 13
01:14:09.080 : en:Chapter 14
01:19:48.680 : en:Chapter 15
01:26:56.480 : en:Chapter 16




Screenshots DVDRip (click to enlarge to original size):

Hopelessly Lost / Sovsem Propashchiy / Совсем пропащий (1973)






If you like this release please visit my blog
In it you will find "Russian (Русский)", "Россия", "Georgiy Daneliya" and other releases