Chaumiane Production - Hitler? Never Heard of Him (1963)

Chaumiane Production - Hitler? Never Heard of Him (1963)

Chaumiane Production - Hitler? Never Heard of Him (1963)
HDTV | 960x576 | .MKV/AVC @ 2905 Kbps | 1 h 31 min | 2.00 GiB
Audio: Fran├žais AC3 224 kbps, 2 channels | Subs: English
Genre: Documentary

"In 1963, 22-year-old Bertrand Blier invited 11 of his peers to come to a film studio and talk about their lives. The record of what was said, "Hitler? Connais pas!" is a discussion of values that remains relevant and fascinating today. The footage was shot just five years prior to May 1968, and the atmosphere of that time is clearly discernible: these young people may not yet be revolutionaries, but there is clearly a ferment in the air. One young woman describes how she dances the twist every evening; a young man relates his mother's marital infidelities; another young woman describes her own sexual escapades. A bourgeois life holds no appeal for her whatsoever: that would be "a small life," like that of her parents – and that is certainly not the way to happiness. Another young man has a very traditional attitude: a carbon copy of his father, typical of the 1950s. All he wants is a nice family, a good job, and a nice car in the driveway. Blier focused his camera on an interesting historical gray area.

The aesthetics are typically 1960s: each of the twenty-somethings is filmed in isolation, sitting on a chair, under bright lights, from different angles, and in black-and-white."

General
Unique ID : 195840130107640350474954123222167925112 (0x93556FE50B8695312E9F35AA372D3178)
Complete name : Hitler.Never.Heard.of.Him.mkv
Format : Matroska
Format version : Version 4 / Version 2
File size : 2.00 GiB
Duration : 1 h 31 min
Overall bit rate : 3 131 kb/s

Video
ID : 1
Format : AVC
Format/Info : Advanced Video Codec
Format profile : High@L4.1
Format settings, CABAC : Yes
Format settings, ReFrames : 9 frames
Codec ID : V_MPEG4/ISO/AVC
Duration : 1 h 31 min
Bit rate : 2 905 kb/s
Width : 960 pixels
Height : 576 pixels
Display aspect ratio : 5:3
Frame rate mode : Constant
Frame rate : 24.000 FPS
Color space : YUV
Chroma subsampling : 4:2:0
Bit depth : 8 bits
Scan type : Progressive
Bits/(Pixel*Frame) : 0.219
Stream size : 1.86 GiB (93%)
Writing library : x264 core 146 r2538 121396c
Encoding settings : cabac=1 / ref=9 / deblock=1:-3:-3 / analyse=0x3:0x133 / me=umh / subme=11 / psy=1 / psy_rd=1.25:0.15 / mixed_ref=1 / me_range=32 / chroma_me=1 / trellis=2 / 8x8dct=1 / cqm=0 / deadzone=21,11 / fast_pskip=0 / chroma_qp_offset=-3 / threads=8 / lookahead_threads=2 / sliced_threads=0 / nr=0 / decimate=0 / interlaced=0 / bluray_compat=0 / constrained_intra=0 / bframes=12 / b_pyramid=2 / b_adapt=2 / b_bias=0 / direct=3 / weightb=1 / open_gop=0 / weightp=2 / keyint=240 / keyint_min=24 / scenecut=40 / intra_refresh=0 / rc_lookahead=100 / rc=crf / mbtree=1 / crf=24.1 / qcomp=0.73 / qpmin=0 / qpmax=69 / qpstep=4 / vbv_maxrate=14000 / vbv_bufsize=14000 / crf_max=0.0 / nal_hrd=none / filler=0 / ip_ratio=1.40 / aq=1:0.80
Default : Yes
Forced : No

Audio
ID : 2
Format : AC-3
Format/Info : Audio Coding 3
Format settings, Endianness : Big
Codec ID : A_AC3
Duration : 1 h 31 min
Bit rate mode : Constant
Bit rate : 224 kb/s
Channel(s) : 2 channels
Channel positions : Front: L R
Sampling rate : 48.0 kHz
Frame rate : 31.250 FPS (1536 spf)
Bit depth : 16 bits
Compression mode : Lossy
Stream size : 147 MiB (7%)
Language : French
Service kind : Complete Main
Default : Yes
Forced : No

Text
ID : 3
Format : UTF-8
Codec ID : S_TEXT/UTF8
Codec ID/Info : UTF-8 Plain Text
Duration : 1 h 31 min
Bit rate : 62 b/s
Count of elements : 1020
Stream size : 41.8 KiB (0%)
Language : English
Default : Yes
Forced : No


Screenshots:

Chaumiane Production - Hitler? Never Heard of Him (1963)

Chaumiane Production - Hitler? Never Heard of Him (1963)

Chaumiane Production - Hitler? Never Heard of Him (1963)

Chaumiane Production - Hitler? Never Heard of Him (1963)