His Girl Friday (1940)

His Girl Friday (1940)

His Girl Friday (1940)
BDRip 1080p | MKV | 1440x1080 | AVC@12.9 Mb/s | English AC3@640 kb/s
Subs: English | 1 channel | 1 h 32 min | 8.74 GB
Genre: Comedy, Drama, Romance

A newspaper editor uses every trick in the book to keep his ace reporter ex-wife from remarrying.

IMDB - 1 win


General
Unique ID : 174092458559519245154803016210450898908 (0x82F8FCE738FDB71786F40DBC65165FDC)
Complete name : D:\A\His.Girl.Friday.1940.1080p.BluRay.x264-SiNNERS.mkv
Format : Matroska
Format version : Version 4 / Version 2
File size : 8.75 GiB
Duration : 1 h 32 min
Overall bit rate : 13.6 Mb/s
Encoded date : UTC 2017-01-06 23:04:43
Writing application : mkvmerge v6.8.0 ('Theme for Great Cities') 64bit built on Mar 2 2014 21:34:26
Writing library : libebml v1.3.0 + libmatroska v1.4.1

Video
ID : 1
Format : AVC
Format/Info : Advanced Video Codec
Format profile : High@L4.1
Format settings, CABAC : Yes
Format settings, ReFrames : 5 frames
Codec ID : V_MPEG4/ISO/AVC
Duration : 1 h 32 min
Bit rate : 12.9 Mb/s
Width : 1 440 pixels
Height : 1 080 pixels
Display aspect ratio : 4:3
Frame rate mode : Constant
Frame rate : 23.976 (24000/1001) FPS
Color space : YUV
Chroma subsampling : 4:2:0
Bit depth : 8 bits
Scan type : Progressive
Bits/(Pixel*Frame) : 0.347
Stream size : 8.16 GiB (93%)
Writing library : x264 core 148 r2744 b97ae06
Encoding settings : cabac=1 / ref=5 / deblock=1:-3:-3 / analyse=0x3:0x113 / me=umh / subme=8 / psy=1 / psy_rd=1.00:0.00 / mixed_ref=1 / me_range=16 / chroma_me=1 / trellis=1 / 8x8dct=1 / cqm=0 / deadzone=21,11 / fast_pskip=0 / chroma_qp_offset=-2 / threads=18 / lookahead_threads=3 / sliced_threads=0 / nr=0 / decimate=1 / interlaced=0 / bluray_compat=0 / constrained_intra=0 / bframes=3 / b_pyramid=2 / b_adapt=1 / b_bias=0 / direct=1 / weightb=1 / open_gop=0 / weightp=2 / keyint=250 / keyint_min=23 / scenecut=40 / intra_refresh=0 / rc_lookahead=40 / rc=2pass / mbtree=1 / bitrate=12945 / ratetol=1.0 / qcomp=0.60 / qpmin=0 / qpmax=69 / qpstep=4 / cplxblur=20.0 / qblur=0.5 / ip_ratio=1.40 / aq=1:1.00
Language : English
Default : Yes
Forced : No

Audio
ID : 2
Format : AC-3
Format/Info : Audio Coding 3
Mode extension : CM (complete main)
Format settings, Endianness : Big
Codec ID : A_AC3
Duration : 1 h 32 min
Bit rate mode : Constant
Bit rate : 640 kb/s
Channel(s) : 1 channel
Channel positions : Front: C
Sampling rate : 48.0 kHz
Frame rate : 31.250 FPS (1536 spf)
Bit depth : 16 bits
Compression mode : Lossy
Stream size : 422 MiB (5%)
Language : English
Default : Yes
Forced : No

Text #1
ID : 3
Format : UTF-8
Codec ID : S_TEXT/UTF8
Codec ID/Info : UTF-8 Plain Text
Language : English
Default : No
Forced : No

Text #2
ID : 4
Format : UTF-8
Codec ID : S_TEXT/UTF8
Codec ID/Info : UTF-8 Plain Text
Title : SDH
Language : English
Default : No
Forced : No

Menu
00:00:00.000 : en:00:00:00.000
00:14:58.731 : en:00:14:58.731
00:24:22.461 : en:00:24:22.461
00:27:53.171 : en:00:27:53.171
00:32:39.374 : en:00:32:39.374
00:35:21.369 : en:00:35:21.369
00:41:09.884 : en:00:41:09.884
00:47:36.687 : en:00:47:36.687
00:55:07.930 : en:00:55:07.930
00:58:16.702 : en:00:58:16.702
01:06:19.517 : en:01:06:19.517
01:13:00.668 : en:01:13:00.668
01:19:41.610 : en:01:19:41.610
01:27:23.947 : en:01:27:23.947


BDRip 1080p Screenshots

His Girl Friday (1940)

His Girl Friday (1940)

His Girl Friday (1940)

His Girl Friday (1940)


Come Visit My Blog (•‿•)