High Hopes (1988) [Ramastered]

High Hopes (1988) [Ramastered]

High Hopes (1988) [Ramastered]
BDRip 1080p | MKV | 1920x1080 | AVC@10.5 Mb/s | English AC3@640 kb/s
Subs: English | 2 channels | 1 h 52 min | 8.74 GB
Genre: Comedy, Drama

Slice-of-life look at a sweet working-class couple in London, Shirley and Cyril, his mother, who's aging quickly and becoming forgetful, mum's ghastly upper-middle-class neighbors, and Cyril's pretentious sister and philandering husband. Shirley wants a baby, but Cyril, who reads Marx and wants the world to be perfect, is reluctant. Cyril's mum locks herself out and must ask her snooty neighbors for help. Then Cyril's sister Valerie stages a surprise party for mum's 70th birthday, a disaster from start to finish. Shirley holds things together, and she and Cyril may put aside her Dutch cap after all.

IMDB - 5 wins & 2 nominations


General
Unique ID : 199683356528316148993776296535102924287 (0x96399D9637492B79AF91F0A72A9125FF)
Complete name : J:\High.Hopes.1988.REMASTERED.1080p.BluRay.x264-EiDER[rarbg]\High.Hopes.1988.REMASTERED.1080p.BluRay.x264-EiDER.mkv
Format : Matroska
Format version : Version 4 / Version 2
File size : 8.74 GiB
Duration : 1 h 52 min
Overall bit rate : 11.1 Mb/s
Encoded date : UTC 2017-02-01 16:24:51
Writing application : mkvmerge v9.6.0 ('Slave To Your Mind') 64bit
Writing library : libebml v1.3.4 + libmatroska v1.4.5

Video
ID : 1
Format : AVC
Format/Info : Advanced Video Codec
Format profile : High@L4.1
Format settings, CABAC : Yes
Format settings, ReFrames : 4 frames
Codec ID : V_MPEG4/ISO/AVC
Duration : 1 h 52 min
Bit rate : 10.5 Mb/s
Width : 1 920 pixels
Height : 1 080 pixels
Display aspect ratio : 16:9
Frame rate mode : Constant
Frame rate : 24.000 FPS
Color space : YUV
Chroma subsampling : 4:2:0
Bit depth : 8 bits
Scan type : Progressive
Bits/(Pixel*Frame) : 0.211
Stream size : 8.24 GiB (94%)
Writing library : x264 core 148 r2744 b97ae06
Encoding settings : cabac=1 / ref=4 / deblock=1:0:0 / analyse=0x3:0x113 / me=umh / subme=8 / psy=1 / psy_rd=1.00:0.00 / mixed_ref=1 / me_range=16 / chroma_me=1 / trellis=1 / 8x8dct=1 / cqm=0 / deadzone=21,11 / fast_pskip=1 / chroma_qp_offset=-2 / threads=18 / lookahead_threads=3 / sliced_threads=0 / nr=0 / decimate=1 / interlaced=0 / bluray_compat=0 / constrained_intra=0 / bframes=3 / b_pyramid=2 / b_adapt=1 / b_bias=0 / direct=3 / weightb=1 / open_gop=0 / weightp=2 / keyint=240 / keyint_min=24 / scenecut=40 / intra_refresh=0 / rc_lookahead=50 / rc=2pass / mbtree=1 / bitrate=10492 / ratetol=1.0 / qcomp=0.60 / qpmin=0 / qpmax=69 / qpstep=4 / cplxblur=20.0 / qblur=0.5 / vbv_maxrate=62500 / vbv_bufsize=78125 / nal_hrd=none / filler=0 / ip_ratio=1.40 / aq=1:1.00
Default : Yes
Forced : No

Audio
ID : 2
Format : AC-3
Format/Info : Audio Coding 3
Mode extension : CM (complete main)
Format settings, Endianness : Big
Codec ID : A_AC3
Duration : 1 h 52 min
Bit rate mode : Constant
Bit rate : 640 kb/s
Channel(s) : 2 channels
Channel positions : Front: L R
Sampling rate : 48.0 kHz
Frame rate : 31.250 FPS (1536 spf)
Bit depth : 16 bits
Compression mode : Lossy
Stream size : 515 MiB (6%)
Language : English
Default : Yes
Forced : No

Text
ID : 3
Format : UTF-8
Codec ID : S_TEXT/UTF8
Codec ID/Info : UTF-8 Plain Text
Duration : 1 h 46 min
Bit rate : 67 b/s
Count of elements : 1613
Stream size : 52.5 KiB (0%)
Language : English
Default : No
Forced : No

Menu
00:00:00.000 : :Chapter 01
00:07:33.208 : :Chapter 02
00:19:07.708 : :Chapter 03
00:27:51.458 : :Chapter 04
00:36:04.666 : :Chapter 05
00:44:41.750 : :Chapter 06
00:53:14.166 : :Chapter 07
01:01:37.875 : :Chapter 08
01:11:33.375 : :Chapter 09
01:19:44.791 : :Chapter 10
01:27:31.041 : :Chapter 11
01:35:36.625 : :Chapter 12
01:40:32.333 : :Chapter 13
01:47:10.916 : :Chapter 14


BDRip 1080p Screenshots

High Hopes (1988) [Ramastered]

High Hopes (1988) [Ramastered]

High Hopes (1988) [Ramastered]


Come Visit My Blog (•‿•)