Hatari! (1962)

Hatari! (1962)

Hatari! (1962)
BDRip 1080p | MKV | 1920x1080 | AVC@13.3 Mb/s | English AC3@640 kb/s
Subs: English | 6 channels | 2 h 37 min | 15.3 GB
Genre: Action, Adventure, Drama

A group of men trap wild animals in Africa and sell them to zoos before the arrival of a female wildlife photographer threatens to change their ways.

IMDB - Nominated for 1 Oscar. Another 1 nomination


General
Hatari.1962.1080p.BluRay.X264-AMIABLE\Hatari.1962.1080p.BluRay.X264-AMIABLE.mkv
Format : Matroska
Format version : Version 2
File size : 15.3 GiB
Duration : 2 h 37 min
Overall bit rate : 13.9 Mb/s
Writing application : mkvmerge v4.1.1 ('Bouncin' Back') built on Jul 3 2010 22:54:08
Writing library : libebml v1.0.0 + libmatroska v1.0

Video
ID : 1
Format : AVC
Format/Info : Advanced Video Codec
Format profile : High@L4.1
Format settings, CABAC : Yes
Format settings, ReFrames : 4 frames
Codec ID : V_MPEG4/ISO/AVC
Duration : 2 h 37 min
Bit rate : 13.3 Mb/s
Width : 1 920 pixels
Height : 1 080 pixels
Display aspect ratio : 16:9
Frame rate mode : Constant
Frame rate : 23.976 (24000/1001) FPS
Color space : YUV
Chroma subsampling : 4:2:0
Bit depth : 8 bits
Scan type : Progressive
Bits/(Pixel*Frame) : 0.267
Stream size : 14.3 GiB (93%)
Writing library : x264 core 138 r2358 9e941d1
Encoding settings : cabac=1 / ref=4 / deblock=1:-3:-3 / analyse=0x3:0x113 / me=umh / subme=8 / psy=1 / psy_rd=1.00:0.00 / mixed_ref=1 / me_range=16 / chroma_me=1 / trellis=1 / 8x8dct=1 / cqm=0 / deadzone=21,11 / fast_pskip=1 / chroma_qp_offset=-2 / threads=18 / lookahead_threads=3 / sliced_threads=0 / nr=0 / decimate=1 / interlaced=0 / bluray_compat=0 / constrained_intra=0 / bframes=3 / b_pyramid=2 / b_adapt=2 / b_bias=0 / direct=3 / weightb=1 / open_gop=0 / weightp=2 / keyint=240 / keyint_min=24 / scenecut=40 / intra_refresh=0 / rc_lookahead=50 / rc=2pass / mbtree=1 / bitrate=13270 / ratetol=1.0 / qcomp=0.60 / qpmin=0 / qpmax=69 / qpstep=4 / cplxblur=20.0 / qblur=0.5 / ip_ratio=1.40 / aq=1:1.00
Language : English
Default : Yes
Forced : No

Audio
ID : 2
Format : AC-3
Format/Info : Audio Coding 3
Mode extension : CM (complete main)
Format settings, Endianness : Big
Codec ID : A_AC3
Duration : 2 h 37 min
Bit rate mode : Constant
Bit rate : 640 kb/s
Channel(s) : 6 channels
Channel(s)_Original : 2 channels
Channel positions : Front: L R
Sampling rate : 48.0 kHz
Frame rate : 31.250 FPS (1536 spf)
Bit depth : 16 bits
Compression mode : Lossy
Stream size : 721 MiB (5%)
Language : English
Default : Yes
Forced : No

Text #1
ID : 3
Format : UTF-8
Codec ID : S_TEXT/UTF8
Codec ID/Info : UTF-8 Plain Text
Language : English
Default : No
Forced : No

Text #2
ID : 4
Format : UTF-8
Codec ID : S_TEXT/UTF8
Codec ID/Info : UTF-8 Plain Text
Title : SDH
Language : English
Default : No
Forced : No

Menu
00:00:00.000 : en:00:00:00.000
00:06:24.259 : en:00:06:24.259
00:15:17.750 : en:00:15:17.750
00:24:49.238 : en:00:24:49.238
00:35:23.705 : en:00:35:23.705
00:45:17.006 : en:00:45:17.006
00:57:28.528 : en:00:57:28.528
01:06:08.548 : en:01:06:08.548
01:14:07.652 : en:01:14:07.652
01:20:30.993 : en:01:20:30.993
01:33:27.769 : en:01:33:27.769
01:41:34.213 : en:01:41:34.213
01:51:19.965 : en:01:51:19.965
02:05:26.519 : en:02:05:26.519
02:11:29.757 : en:02:11:29.757
02:20:24.750 : en:02:20:24.750
02:27:12.907 : en:02:27:12.907


BDRip 1080p Screenshots

Hatari! (1962)

Hatari! (1962)

Hatari! (1962)

Hatari! (1962)


Come Visit My Blog (•‿•)