Hands of a Gunfighter / Ocaso de un pistolero (1965)

Hands of a Gunfighter / Ocaso de un pistolero (1965)

Hands of a Gunfighter / Ocaso de un pistolero (1965)
BDRip 1080p | MKV | AVC 1920x820, ~ 3.7 Mbps | 1hr 16mn | 2.41 GB
English \ German (Deutsch) \ Spanish (Español): AC3, 2 ch, 256 kbps
BDRip 720p | MKV | AVC 1280x548, ~ 2.6 Mbps | 1hr 16mn | 1.82 GB
English \ German (Deutsch) \ Spanish (Español): AC3, 2 ch, 256 kbps
Subtitles: English, German (Deutsch)
Genre: Western
IMDB Rating: 5.9/10 (82 votes)


Director: Rafael Romero Marchent (as Rafael R. Marchent)
Writers: Joaquín Romero Hernández (screenplay) (as Joaquin Luis Romero Hernandez)
Stars: Craig Hill, Gloria Milland, Conchita Núñez

A reformed gunman returns to his earlier life seeking justice when the Castle brothers shoot his friends.

Extras:
- None




General
Unique ID : 225675692168849151058372077057270247425 (0xA9C78EACF89D26C3AD0F843529B27001)
Complete name : F:\HandsOfAGunfighter.65.1p\HandsOfAGunfighter.65.1p.mkv
Format : Matroska
Format version : Version 4 / Version 2
File size : 2.41 GiB
Duration : 1 h 16 min
Overall bit rate : 4 486 kb/s
Movie name : Release RSU75
Encoded date : UTC 2019-12-01 03:04:57
Writing application : mkvmerge v6.6.0 ('The Edge Of The In Between') built on Dec 1 2013 17:55:00
Writing library : libebml v1.3.0 + libmatroska v1.4.1

Video
ID : 1
Format : AVC
Format/Info : Advanced Video Codec
Format profile : High@L4.1
Format settings : CABAC / 4 Ref Frames
Format settings, CABAC : Yes
Format settings, ReFrames : 4 frames
Codec ID : V_MPEG4/ISO/AVC
Duration : 1 h 16 min
Bit rate : 3 700 kb/s
Width : 1 920 pixels
Height : 820 pixels
Display aspect ratio : 2.35:1
Frame rate mode : Constant
Frame rate : 23.976 (23976/1000) FPS
Color space : YUV
Chroma subsampling : 4:2:0
Bit depth : 8 bits
Scan type : Progressive
Bits/(Pixel*Frame) : 0.098
Stream size : 1.95 GiB (81%)
Writing library : x264 core 148 r2643 5c65704
Encoding settings : cabac=1 / ref=4 / deblock=1:0:0 / analyse=0x3:0x113 / me=umh / subme=8 / psy=1 / psy_rd=1.00:0.00 / mixed_ref=1 / me_range=24 / chroma_me=1 / trellis=1 / 8x8dct=1 / cqm=0 / deadzone=21,11 / fast_pskip=1 / chroma_qp_offset=-2 / threads=3 / lookahead_threads=1 / sliced_threads=0 / nr=0 / decimate=1 / interlaced=0 / bluray_compat=0 / constrained_intra=0 / bframes=3 / b_pyramid=0 / b_adapt=2 / b_bias=0 / direct=3 / weightb=1 / open_gop=0 / weightp=2 / keyint=250 / keyint_min=25 / scenecut=40 / intra_refresh=0 / rc_lookahead=40 / rc=abr / mbtree=1 / bitrate=3700 / ratetol=1.0 / qcomp=0.60 / qpmin=10 / qpmax=51 / qpstep=4 / ip_ratio=1.41 / aq=1:1.00
Language : English
Default : Yes
Forced : No

Audio #1
ID : 2
Format : AC-3
Format/Info : Audio Coding 3
Commercial name : Dolby Digital
Codec ID : A_AC3
Duration : 1 h 16 min
Bit rate mode : Constant
Bit rate : 256 kb/s
Channel(s) : 2 channels
Channel layout : L R
Sampling rate : 44.1 kHz
Frame rate : 28.711 FPS (1536 SPF)
Bit depth : 16 bits
Compression mode : Lossy
Stream size : 141 MiB (6%)
Title : Stereo
Language : English
Service kind : Complete Main
Default : Yes
Forced : No

Audio #2
ID : 3
Format : AC-3
Format/Info : Audio Coding 3
Commercial name : Dolby Digital
Codec ID : A_AC3
Duration : 1 h 16 min
Bit rate mode : Constant
Bit rate : 256 kb/s
Channel(s) : 2 channels
Channel layout : L R
Sampling rate : 44.1 kHz
Frame rate : 28.711 FPS (1536 SPF)
Bit depth : 16 bits
Compression mode : Lossy
Stream size : 141 MiB (6%)
Title : Stereo
Language : German
Service kind : Complete Main
Default : No
Forced : No

Audio #3
ID : 4
Format : AC-3
Format/Info : Audio Coding 3
Commercial name : Dolby Digital
Codec ID : A_AC3
Duration : 1 h 16 min
Bit rate mode : Constant
Bit rate : 256 kb/s
Channel(s) : 2 channels
Channel layout : L R
Sampling rate : 44.1 kHz
Frame rate : 28.711 FPS (1536 SPF)
Bit depth : 16 bits
Compression mode : Lossy
Stream size : 141 MiB (6%)
Title : Stereo
Language : Spanish
Service kind : Complete Main
Default : No
Forced : No

Text #1
ID : 5
Format : PGS
Muxing mode : zlib
Codec ID : S_HDMV/PGS
Codec ID/Info : Picture based subtitle format used on BDs/HD-DVDs
Language : English
Default : Yes
Forced : No

Text #2
ID : 6
Format : PGS
Muxing mode : zlib
Codec ID : S_HDMV/PGS
Codec ID/Info : Picture based subtitle format used on BDs/HD-DVDs
Language : German
Default : No
Forced : No

Menu
00:00:00.000 : en:Chapter 01
00:01:44.646 : en:Chapter 02
00:04:50.373 : en:Chapter 03
00:10:11.902 : en:Chapter 04
00:16:39.206 : en:Chapter 05
00:19:59.072 : en:Chapter 06
00:24:58.955 : en:Chapter 07
00:34:45.958 : en:Chapter 08
00:39:13.642 : en:Chapter 09
00:44:13.984 : en:Chapter 10
00:48:57.392 : en:Chapter 11
00:54:00.987 : en:Chapter 12
00:58:33.927 : en:Chapter 13
01:01:44.325 : en:Chapter 14
01:07:49.440 : en:Chapter 15
01:11:11.433 : en:Chapter 16





General
Unique ID : 232484432715286764112861739495224446482 (0xAEE6DF80AA4A0D74BFF0E8E8CD070E12)
Complete name : F:\HandsOfAGunfighter.65.7p\HandsOfAGunfighter.65.7p.mkv
Format : Matroska
Format version : Version 4 / Version 2
File size : 1.82 GiB
Duration : 1 h 16 min
Overall bit rate : 3 383 kb/s
Movie name : Release RSU75
Encoded date : UTC 2019-12-01 03:11:14
Writing application : mkvmerge v6.6.0 ('The Edge Of The In Between') built on Dec 1 2013 17:55:00
Writing library : libebml v1.3.0 + libmatroska v1.4.1

Video
ID : 1
Format : AVC
Format/Info : Advanced Video Codec
Format profile : High@L4.1
Format settings : CABAC / 4 Ref Frames
Format settings, CABAC : Yes
Format settings, ReFrames : 4 frames
Codec ID : V_MPEG4/ISO/AVC
Duration : 1 h 16 min
Bit rate : 2 600 kb/s
Width : 1 280 pixels
Height : 548 pixels
Display aspect ratio : 2.35:1
Frame rate mode : Constant
Frame rate : 23.976 (23976/1000) FPS
Color space : YUV
Chroma subsampling : 4:2:0
Bit depth : 8 bits
Scan type : Progressive
Bits/(Pixel*Frame) : 0.155
Stream size : 1.37 GiB (75%)
Writing library : x264 core 148 r2643 5c65704
Encoding settings : cabac=1 / ref=4 / deblock=1:0:0 / analyse=0x3:0x113 / me=umh / subme=8 / psy=1 / psy_rd=1.00:0.00 / mixed_ref=1 / me_range=24 / chroma_me=1 / trellis=1 / 8x8dct=1 / cqm=0 / deadzone=21,11 / fast_pskip=1 / chroma_qp_offset=-2 / threads=3 / lookahead_threads=1 / sliced_threads=0 / nr=0 / decimate=1 / interlaced=0 / bluray_compat=0 / constrained_intra=0 / bframes=3 / b_pyramid=0 / b_adapt=2 / b_bias=0 / direct=3 / weightb=1 / open_gop=0 / weightp=2 / keyint=250 / keyint_min=25 / scenecut=40 / intra_refresh=0 / rc_lookahead=40 / rc=abr / mbtree=1 / bitrate=2600 / ratetol=1.0 / qcomp=0.60 / qpmin=10 / qpmax=51 / qpstep=4 / ip_ratio=1.41 / aq=1:1.00
Language : English
Default : Yes
Forced : No

Audio #1
ID : 2
Format : AC-3
Format/Info : Audio Coding 3
Commercial name : Dolby Digital
Codec ID : A_AC3
Duration : 1 h 16 min
Bit rate mode : Constant
Bit rate : 256 kb/s
Channel(s) : 2 channels
Channel layout : L R
Sampling rate : 44.1 kHz
Frame rate : 28.711 FPS (1536 SPF)
Bit depth : 16 bits
Compression mode : Lossy
Stream size : 141 MiB (8%)
Title : Stereo
Language : English
Service kind : Complete Main
Default : Yes
Forced : No

Audio #2
ID : 3
Format : AC-3
Format/Info : Audio Coding 3
Commercial name : Dolby Digital
Codec ID : A_AC3
Duration : 1 h 16 min
Bit rate mode : Constant
Bit rate : 256 kb/s
Channel(s) : 2 channels
Channel layout : L R
Sampling rate : 44.1 kHz
Frame rate : 28.711 FPS (1536 SPF)
Bit depth : 16 bits
Compression mode : Lossy
Stream size : 141 MiB (8%)
Title : Stereo
Language : German
Service kind : Complete Main
Default : No
Forced : No

Audio #3
ID : 4
Format : AC-3
Format/Info : Audio Coding 3
Commercial name : Dolby Digital
Codec ID : A_AC3
Duration : 1 h 16 min
Bit rate mode : Constant
Bit rate : 256 kb/s
Channel(s) : 2 channels
Channel layout : L R
Sampling rate : 44.1 kHz
Frame rate : 28.711 FPS (1536 SPF)
Bit depth : 16 bits
Compression mode : Lossy
Stream size : 141 MiB (8%)
Title : Stereo
Language : Spanish
Service kind : Complete Main
Default : No
Forced : No

Text #1
ID : 5
Format : PGS
Muxing mode : zlib
Codec ID : S_HDMV/PGS
Codec ID/Info : Picture based subtitle format used on BDs/HD-DVDs
Language : English
Default : Yes
Forced : No

Text #2
ID : 6
Format : PGS
Muxing mode : zlib
Codec ID : S_HDMV/PGS
Codec ID/Info : Picture based subtitle format used on BDs/HD-DVDs
Language : German
Default : No
Forced : No

Menu
00:00:00.000 : en:Chapter 01
00:01:44.646 : en:Chapter 02
00:04:50.373 : en:Chapter 03
00:10:11.902 : en:Chapter 04
00:16:39.206 : en:Chapter 05
00:19:59.072 : en:Chapter 06
00:24:58.955 : en:Chapter 07
00:34:45.958 : en:Chapter 08
00:39:13.642 : en:Chapter 09
00:44:13.984 : en:Chapter 10
00:48:57.392 : en:Chapter 11
00:54:00.987 : en:Chapter 12
00:58:33.927 : en:Chapter 13
01:01:44.325 : en:Chapter 14
01:07:49.440 : en:Chapter 15
01:11:11.433 : en:Chapter 16




Screenshots 1080p (click to enlarge to original size):

Hands of a Gunfighter / Ocaso de un pistolero (1965)

Hands of a Gunfighter / Ocaso de un pistolero (1965)

Hands of a Gunfighter / Ocaso de un pistolero (1965)



Screenshots 720p (click to enlarge to original size):

Hands of a Gunfighter / Ocaso de un pistolero (1965)




–––––––––––––––––––––––––––––––––––––––-
>>> "BDRip" <<< OR >>> "Western" <<<
–––––––––––––––––––––––––––––––––––––––-
>>> Visit Blog RSU75 Here <<<
–––––––––––––––––––––––––––––––––––––––-