Gypsy (1962)

Gypsy (1962)

Gypsy (1962)
BDRip 1080p | MKV | 1920x800 | AVC@9423 kb/s | English DTS@1509 kb/s
Subs: English | 6 channels | 2 h 23 min | 10.9 GB
Genre: Biography, Comedy, Drama, Musical

Based on the Broadway hit about the life and times of burlesque dancer Gypsy Rose Lee and her aggressive stage mother, Mama Rose.

IMDB - Nominated for 3 Oscars. Another 1 win & 10 nominations.


General
Gypsy.1962.1080p.BluRay.x264-PSYCHD.mkv
Format : Matroska
Format version : Version 2
File size : 10.9 GiB
Duration : 2 h 23 min
Overall bit rate : 10.9 Mb/s
Writing application : mkvmerge v4.1.1 ('Bouncin' Back') built on Jul 3 2010 22:54:08
Writing library : libebml v1.0.0 + libmatroska v1.0

Video
ID : 1
Format : AVC
Format/Info : Advanced Video Codec
Format profile : High@L4.1
Format settings, CABAC : Yes
Format settings, ReFrames : 5 frames
Codec ID : V_MPEG4/ISO/AVC
Duration : 2 h 23 min
Bit rate : 9 423 kb/s
Width : 1 920 pixels
Height : 800 pixels
Display aspect ratio : 2.40:1
Frame rate mode : Constant
Frame rate : 23.976 (24000/1001) FPS
Color space : YUV
Chroma subsampling : 4:2:0
Bit depth : 8 bits
Scan type : Progressive
Bits/(Pixel*Frame) : 0.256
Stream size : 9.21 GiB (84%)
Writing library : x264 core 129 r2230 1cffe9f
Encoding settings : cabac=1 / ref=5 / deblock=1:0:0 / analyse=0x3:0x113 / me=umh / subme=8 / psy=1 / psy_rd=1.00:0.00 / mixed_ref=1 / me_range=16 / chroma_me=1 / trellis=1 / 8x8dct=1 / cqm=0 / deadzone=21,11 / fast_pskip=1 / chroma_qp_offset=-2 / threads=12 / lookahead_threads=2 / sliced_threads=0 / nr=0 / decimate=1 / interlaced=0 / bluray_compat=0 / constrained_intra=0 / bframes=3 / b_pyramid=2 / b_adapt=2 / b_bias=0 / direct=3 / weightb=1 / open_gop=0 / weightp=2 / keyint=240 / keyint_min=24 / scenecut=40 / intra_refresh=0 / rc_lookahead=50 / rc=2pass / mbtree=1 / bitrate=9423 / ratetol=1.0 / qcomp=0.60 / qpmin=0 / qpmax=69 / qpstep=4 / cplxblur=20.0 / qblur=0.5 / ip_ratio=1.40 / aq=1:1.00
Language : English
Default : Yes
Forced : No

Audio
ID : 2
Format : DTS
Format/Info : Digital Theater Systems
Mode : 16
Format settings, Endianness : Big
Codec ID : A_DTS
Duration : 2 h 23 min
Bit rate mode : Constant
Bit rate : 1 509 kb/s
Channel(s) : 6 channels
Channel(s)_Original : 2 channels
Channel positions : Front: L R
Sampling rate : 48.0 kHz
Frame rate : 93.750 FPS (512 spf)
Bit depth : 24 bits
Compression mode : Lossy
Stream size : 1.51 GiB (14%)
Language : English
Default : Yes
Forced : No

Text
ID : 3
Format : UTF-8
Codec ID : S_TEXT/UTF8
Codec ID/Info : UTF-8 Plain Text
Language : English
Default : No
Forced : No

Menu
00:00:00.000 : en:00:00:00.000
00:02:14.760 : en:00:02:14.760
00:03:30.001 : en:00:03:30.001
00:07:00.920 : en:00:07:00.920
00:11:18.386 : en:00:11:18.386
00:13:13.876 : en:00:13:13.876
00:16:30.656 : en:00:16:30.656
00:20:15.214 : en:00:20:15.214
00:24:22.586 : en:00:24:22.586
00:25:31.697 : en:00:25:31.697
00:29:17.839 : en:00:29:17.839
00:33:56.826 : en:00:33:56.826
00:36:19.886 : en:00:36:19.886
00:39:14.435 : en:00:39:14.435
00:41:32.573 : en:00:41:32.573
00:43:57.009 : en:00:43:57.009
00:46:11.894 : en:00:46:11.894
00:53:08.811 : en:00:53:08.811
00:56:28.093 : en:00:56:28.093
00:58:37.139 : en:00:58:37.139
01:01:28.143 : en:01:01:28.143
01:04:26.988 : en:01:04:26.988
01:09:52.897 : en:01:09:52.897
01:12:37.728 : en:01:12:37.728
01:17:22.012 : en:01:17:22.012
01:19:35.896 : en:01:19:35.896
01:22:57.347 : en:01:22:57.347
01:26:38.318 : en:01:26:38.318
01:28:43.360 : en:01:28:43.360
01:34:56.149 : en:01:34:56.149
01:37:49.697 : en:01:37:49.697
01:41:11.190 : en:01:41:11.190
01:47:11.550 : en:01:47:11.550
01:49:57.090 : en:01:49:57.090
01:54:25.692 : en:01:54:25.692
01:57:08.063 : en:01:57:08.063
01:58:56.629 : en:01:58:56.629
02:00:08.618 : en:02:00:08.618
02:02:46.818 : en:02:02:46.818
02:07:05.660 : en:02:07:05.660
02:12:21.642 : en:02:12:21.642
02:15:04.680 : en:02:15:04.680
02:20:33.925 : en:02:20:33.925


BDRip 1080p Screenshots

Gypsy (1962)

Gypsy (1962)

Gypsy (1962)

Gypsy (1962)

Gypsy (1962)

Gypsy (1962)


Come Visit My Blog (•‿•)