Granada - The Spanish Civil War (1983)

Granada - The Spanish Civil War (1983)

Granada - The Spanish Civil War (1983)
DVDRip | 768 x 576 | .MKV/AVC @ 1345 Kbps | 5 h 12 min | 3.08 GB
Audio: English AAC 64.0 Kbps, 2 channels | Subs: None
Genre: Documentary

An objective account of the Spanish civil war, setting out to explain the complicated political situation in Spain at the time - the complexity of a war which was fought simultaneously on many fronts - and placing the whole in context with the turmoil of political ideas in Europe before World War 2. Draws on archive material that became available only after the death of Franco in 1975: after 40 years of suppression and silence, the emotions of a nation are released.

General
Unique ID : 221508336016250495056143932072595358644 (0xA6A4F4276BA3F76B128BB254EA1503B4)
Complete name : Granada.The.Spanish.Civil.War.1983.576p.mkv
Format : Matroska
Format version : Version 4 / Version 2
File size : 3.08 GiB
Duration : 5 h 12 min
Overall bit rate : 1 411 kb/s
Movie name : The Spanish Civil War []
Encoded date : UTC 2019-09-10 18:08:33
Writing application : mkvmerge v37.0.0 ('Leave It') 64-bit
Writing library : libebml v1.3.9 + libmatroska v1.5.2

Video
ID : 1
Format : AVC
Format/Info : Advanced Video Codec
Format profile : Main@L3.1
Format settings, CABAC : Yes
Format settings, ReFrames : 4 frames
Codec ID : V_MPEG4/ISO/AVC
Duration : 5 h 12 min
Bit rate : 1 345 kb/s
Width : 768 pixels
Height : 576 pixels
Display aspect ratio : 4:3
Frame rate mode : Constant
Frame rate : 25.000 FPS
Color space : YUV
Chroma subsampling : 4:2:0
Bit depth : 8 bits
Scan type : Progressive
Bits/(Pixel*Frame) : 0.122
Stream size : 2.94 GiB (95%)
Writing library : x264 core 158 r2984 3759fcb
Encoding settings : cabac=1 / ref=4 / deblock=1:0:0 / analyse=0x1:0x111 / me=umh / subme=9 / psy=1 / psy_rd=1.00:0.00 / mixed_ref=1 / me_range=16 / chroma_me=1 / trellis=1 / 8x8dct=0 / cqm=0 / deadzone=21,11 / fast_pskip=0 / chroma_qp_offset=-2 / threads=18 / lookahead_threads=2 / sliced_threads=0 / nr=0 / decimate=1 / interlaced=0 / bluray_compat=0 / constrained_intra=0 / bframes=6 / b_pyramid=2 / b_adapt=2 / b_bias=0 / direct=1 / weightb=1 / open_gop=0 / weightp=2 / keyint=250 / keyint_min=25 / scenecut=40 / intra_refresh=0 / rc_lookahead=40 / rc=crf / mbtree=1 / crf=23.0 / qcomp=0.60 / qpmin=0 / qpmax=69 / qpstep=4 / ip_ratio=1.40 / aq=1:1.00
Language : English
Default : Yes
Forced : No

Audio
ID : 2
Format : AAC
Format/Info : Advanced Audio Codec
Format profile : HE-AAC / LC
Codec ID : A_AAC
Duration : 5 h 12 min
Bit rate : 64.0 kb/s
Channel(s) : 2 channels
Channel positions : Front: L R
Sampling rate : 48.0 kHz / 24.0 kHz
Frame rate : 23.438 FPS (1024 spf)
Compression mode : Lossy
Stream size : 143 MiB (5%)
Language : English
Default : Yes
Forced : No

Menu
00:00:00.000 : en:Part 1 - Prelude to Tragedy
00:51:37.760 : en:Part 2 - Revolution, Counter-Revolution and Terror
01:43:38.400 : en:Part 3 - Battleground for Idealists
02:36:07.360 : en:Part 4 - Franco and the Nationalists
03:28:08.800 : en:Part 5 - Inside the Revolution
04:19:53.760 : en:Part 6 - Victory and Defeat
Screenshots

Granada - The Spanish Civil War (1983)

Granada - The Spanish Civil War (1983)

Granada - The Spanish Civil War (1983)

Welcome to my blog - daily update!

Granada - The Spanish Civil War (1983)