Granada Television - Don't Knock the Rock (1964)

Granada Television - Don't Knock the Rock (1964)

Granada Television - Don't Knock the Rock (1964)
DVDRip | 624 x 488 | .AVI/XviD @ 1981 Kbps | 50 min 59 s | 796 MB
Audio: English AC-3 192 Kbps, 2 channels | Subs: None
Genre: Documentary, Music

– Original broadcast title "Whole Lotta Shakin' Goin' On" – Vintage rock'n'roll is back in a nostalgic montage of two great classic music shows recorded in Granada's studios in 1963, when these rock'n'roll originals dominated the music scene; the names are legendary, the music stunning and the atmosphere electric. The songs have since become rock standards. JERRY LEE LEWIS sings 'Whole Lotta Shakin Goin On', 'High School Confidential' and 'Great Balls of Fire', GENE VINCENT sings 'Be Bop A Lula', LITTLE RICHARD sings 'Long Tall Sally', 'Lucille', 'Hound Dog', and 'Good Golly Miss Molly'. The show features the first-ever television appearances of two groups who made their name in the sixties - SOUNDS INCORPORATED and THE ANIMALS, with ERIC BURDEN singing and ALAN PRICE on the organ.
also You can find my last: Music-posts

General
Complete name : Granada.Television.Don't.Knock.The.Rock.avi
Format : AVI
Format/Info : Audio Video Interleave
File size : 796 MiB
Duration : 50 min 59 s
Overall bit rate : 2 183 kb/s
Movie name : Granada.Television.Don't.Knock.The.Rock.MVGroup.Forum.avi
Writing application : VirtualDubMod 1.5.10.2 (build 2542/release)
Writing library : VirtualDubMod build 2542/release

Video
ID : 0
Format : MPEG-4 Visual
Format profile : Advanced Simple@L5
Format settings, BVOP : 2
Format settings, QPel : Yes
Format settings, GMC : No warppoints
Format settings, Matrix : Custom
Codec ID : XVID
Codec ID/Hint : XviD
Duration : 50 min 59 s
Bit rate : 1 981 kb/s
Width : 624 pixels
Height : 488 pixels
Display aspect ratio : 1.279
Frame rate : 25.000 FPS
Color space : YUV
Chroma subsampling : 4:2:0
Bit depth : 8 bits
Scan type : Progressive
Compression mode : Lossy
Bits/(Pixel*Frame) : 0.260
Stream size : 722 MiB (91%)
Writing library : XviD 1.2.1 (UTC 2008-12-04)

Audio
ID : 1
Format : AC-3
Format/Info : Audio Coding 3
Format settings, Endianness : Big
Codec ID : 2000
Duration : 50 min 58 s
Bit rate mode : Constant
Bit rate : 192 kb/s
Channel(s) : 2 channels
Channel positions : Front: L R
Sampling rate : 48.0 kHz
Frame rate : 31.250 FPS (1536 spf)
Bit depth : 16 bits
Compression mode : Lossy
Stream size : 70.0 MiB (9%)
Alignment : Split accross interleaves
Interleave, duration : 40 ms (1.00 video frame)
Interleave, preload duration : 500 ms
Service kind : Complete Main
Screenshots

4690001
4690002
4690003
4690004
Welcome to my blog - daily update!

Granada Television - Don't Knock the Rock (1964)