Gojira / Godzilla (1954) [The Criterion Collection]

Gojira / Godzilla (1954) [The Criterion Collection]

Gojira / Godzilla (1954)
BRRip | AVI | 1 h 36 min | 1.22 GB | 534x400 | XviD@1599 kb/s | 日本語 MP3@192 kb/s, 1 ch
BDRip 720p | MKV | 1 h 36 min | 5.47 GB | 960x720 | AVC@7572 kb/s | 日本語 FLAC@532 kb/s, 1 ch
BDRip 1080p | MKV | 1 h 36 min | 8.75 GB | 1488x1080 | AVC@12.4 Mb/s | 日本語 FLAC@532 kb/s, 1 ch
Subs: English
Genre: Drama | Horror | Sci-Fi | Thriller

American nuclear weapons testing results in the creation of a seemingly unstoppable, dinosaur-like beast.

IMDB - 3 wins & 2 nominations.


General
Godzilla.1954.Criterion.JAPANESE.BRRip.XviD.MP3-VXT.avi
Format : AVI
Format/Info : Audio Video Interleave
Format profile : OpenDML
File size : 1.22 GB
Duration : 1 h 36 min
Overall bit rate : 1806 kb/s
Writing application : Lavf58.20.100

Video
ID : 0
Format : MPEG-4 Visual
Format profile : Simple@L5
Format settings, BVOP : No
Format settings, QPel : No
Format settings, GMC : No warppoints
Format settings, Matrix : Default (H.263)
Codec ID : XVID
Codec ID/Hint : XviD
Duration : 1 h 36 min
Bit rate : 1599 kb/s
Width : 534 pixels
Height : 400 pixels
Display aspect ratio : 4:3
Original display aspect ratio : 4:3
Frame rate : 23.976 (24000/1001) FPS
Color space : YUV
Chroma subsampling : 4:2:0
Bit depth : 8 bits
Scan type : Progressive
Compression mode : Lossy
Bits/(Pixel*Frame) : 0.312
Stream size : 1.08 GB (89%)
Writing library : Lavc58.35.100

Audio
ID : 1
Format : MPEG Audio
Format version : Version 1
Format profile : Layer 3
Codec ID : 55
Codec ID/Hint : MP3
Duration : 1 h 36 min
Bit rate mode : Constant
Bit rate : 192 kb/s
Channel(s) : 1 channel
Sampling rate : 48.0 kHz
Compression mode : Lossy
Stream size : 133 MB (11%)
Alignment : Aligned on interleaves
Interleave, duration : 24 ms (0.58 video frame)
Interleave, preload duration : 24 ms


General
godzilla.1954.criterion.720p.bluray.x264-jrp.mkv
Format : Matroska
Format version : Version 4 / Version 2
File size : 5.47 GB
Duration : 1 h 36 min
Overall bit rate mode : Variable
Overall bit rate : 8106 kb/s
Movie name : Godzilla.1954.Criterion.720p.BluRay.x264-JRP
Encoded date : UTC 2019-11-17 02:07:44
Writing application : mkvmerge v40.0.0 ('Old Town Road + Pony') 64-bit
Writing library : libebml v1.3.9 + libmatroska v1.5.2
Attachments : tracks.xml

Video
ID : 1
Format : AVC
Format/Info : Advanced Video Codec
Format profile : High@L4.1
Format settings, CABAC : Yes
Format settings, ReFrames : 5 frames
Codec ID : V_MPEG4/ISO/AVC
Duration : 1 h 36 min
Bit rate : 7572 kb/s
Width : 960 pixels
Height : 720 pixels
Display aspect ratio : 4:3
Frame rate mode : Constant
Frame rate : 23.976 FPS
Color space : YUV
Chroma subsampling : 4:2:0
Bit depth : 8 bits
Scan type : Progressive
Bits/(Pixel*Frame) : 0.457
Stream size : 5.11 GB (93%)
Writing library : x264 core 158 r2984 3759fcb
Encoding settings : cabac=1 / ref=5 / deblock=1:0:0 / analyse=0x3:0x133 / me=umh / subme=7 / psy=1 / psy_rd=1.00:0.00 / mixed_ref=1 / me_range=16 / chroma_me=1 / trellis=2 / 8x8dct=1 / cqm=0 / deadzone=21,11 / fast_pskip=0 / chroma_qp_offset=-2 / threads=12 / lookahead_threads=2 / sliced_threads=0 / nr=0 / decimate=1 / interlaced=0 / bluray_compat=0 / constrained_intra=0 / bframes=3 / b_pyramid=2 / b_adapt=1 / b_bias=0 / direct=3 / weightb=1 / open_gop=0 / weightp=2 / keyint=250 / keyint_min=23 / scenecut=40 / intra_refresh=0 / rc_lookahead=50 / rc=2pass / mbtree=1 / bitrate=7572 / ratetol=1.0 / qcomp=0.60 / qpmin=0 / qpmax=69 / qpstep=4 / cplxblur=20.0 / qblur=0.5 / ip_ratio=1.40 / aq=1:1.00
Language : Japanese
Default : Yes
Forced : No

Audio
ID : 2
Format : FLAC
Format/Info : Free Lossless Audio Codec
Codec ID : A_FLAC
Duration : 1 h 36 min
Bit rate mode : Variable
Bit rate : 532 kb/s
Channel(s) : 1 channel
Channel positions : Front: C
Sampling rate : 48.0 kHz
Frame rate : 11.719 FPS (4096 spf)
Bit depth : 24 bits
Stream size : 367 MB (7%)
Writing library : libFLAC 1.3.2 (UTC 2017-01-01)
Language : Japanese
Default : Yes
Forced : No

Text
ID : 3
Format : UTF-8
Codec ID : S_TEXT/UTF8
Codec ID/Info : UTF-8 Plain Text
Duration : 1 h 36 min
Bit rate : 31 b/s
Count of elements : 721
Stream size : 22.5 KiB (0%)
Language : English
Default : Yes
Forced : No

Menu
00:00:00.000 : en:Chapter 01
00:04:41.364 : en:Chapter 02
00:08:24.337 : en:Chapter 03
00:10:25.958 : en:Chapter 04
00:15:10.034 : en:Chapter 05
00:17:17.119 : en:Chapter 06
00:21:16.149 : en:Chapter 07
00:23:35.414 : en:Chapter 08
00:28:24.703 : en:Chapter 09
00:32:04.380 : en:Chapter 10
00:33:17.036 : en:Chapter 11
00:37:17.818 : en:Chapter 12
00:42:35.469 : en:Chapter 13
00:48:13.140 : en:Chapter 14
00:54:12.249 : en:Chapter 15
01:00:01.598 : en:Chapter 16
01:06:19.809 : en:Chapter 17
01:09:28.289 : en:Chapter 18
01:11:17.898 : en:Chapter 19
01:15:51.880 : en:Chapter 20
01:21:00.689 : en:Chapter 21
01:24:57.675 : en:Chapter 22
01:28:20.461 : en:Chapter 23


General
godzilla.1954.criterion.1080p.bluray.x264-jrp.mkv
Format : Matroska
Format version : Version 4 / Version 2
File size : 8.75 GB
Duration : 1 h 36 min
Overall bit rate mode : Variable
Overall bit rate : 13.0 Mb/s
Movie name : Godzilla.1954.Criterion.1080p.BluRay.x264-JRP
Encoded date : UTC 2019-11-17 02:10:41
Writing application : mkvmerge v40.0.0 ('Old Town Road + Pony') 64-bit
Writing library : libebml v1.3.9 + libmatroska v1.5.2
Attachments : tracks.xml

Video
ID : 1
Format : AVC
Format/Info : Advanced Video Codec
Format profile : High@L4.1
Format settings, CABAC : Yes
Format settings, ReFrames : 4 frames
Codec ID : V_MPEG4/ISO/AVC
Duration : 1 h 36 min
Bit rate : 12.4 Mb/s
Width : 1488 pixels
Height : 1080 pixels
Display aspect ratio : 1.378
Frame rate mode : Constant
Frame rate : 23.976 FPS
Color space : YUV
Chroma subsampling : 4:2:0
Bit depth : 8 bits
Scan type : Progressive
Bits/(Pixel*Frame) : 0.323
Stream size : 8.39 GB (96%)
Writing library : x264 core 158 r2984 3759fcb
Encoding settings : cabac=1 / ref=4 / deblock=1:0:0 / analyse=0x3:0x133 / me=umh / subme=7 / psy=1 / psy_rd=1.00:0.00 / mixed_ref=1 / me_range=16 / chroma_me=1 / trellis=2 / 8x8dct=1 / cqm=0 / deadzone=21,11 / fast_pskip=0 / chroma_qp_offset=-2 / threads=12 / lookahead_threads=2 / sliced_threads=0 / nr=0 / decimate=1 / interlaced=0 / bluray_compat=0 / constrained_intra=0 / bframes=3 / b_pyramid=2 / b_adapt=1 / b_bias=0 / direct=3 / weightb=1 / open_gop=0 / weightp=2 / keyint=250 / keyint_min=23 / scenecut=40 / intra_refresh=0 / rc_lookahead=50 / rc=2pass / mbtree=1 / bitrate=12437 / ratetol=1.0 / qcomp=0.60 / qpmin=0 / qpmax=69 / qpstep=4 / cplxblur=20.0 / qblur=0.5 / ip_ratio=1.40 / aq=1:1.00
Language : Japanese
Default : Yes
Forced : No

Audio
ID : 2
Format : FLAC
Format/Info : Free Lossless Audio Codec
Codec ID : A_FLAC
Duration : 1 h 36 min
Bit rate mode : Variable
Bit rate : 532 kb/s
Channel(s) : 1 channel
Channel positions : Front: C
Sampling rate : 48.0 kHz
Frame rate : 11.719 FPS (4096 spf)
Bit depth : 24 bits
Stream size : 367 MB (4%)
Writing library : libFLAC 1.3.2 (UTC 2017-01-01)
Language : Japanese
Default : Yes
Forced : No

Text
ID : 3
Format : UTF-8
Codec ID : S_TEXT/UTF8
Codec ID/Info : UTF-8 Plain Text
Duration : 1 h 36 min
Bit rate : 31 b/s
Count of elements : 721
Stream size : 22.5 KiB (0%)
Language : English
Default : Yes
Forced : No

Menu
00:00:00.000 : en:Chapter 01
00:04:41.364 : en:Chapter 02
00:08:24.337 : en:Chapter 03
00:10:25.958 : en:Chapter 04
00:15:10.034 : en:Chapter 05
00:17:17.119 : en:Chapter 06
00:21:16.149 : en:Chapter 07
00:23:35.414 : en:Chapter 08
00:28:24.703 : en:Chapter 09
00:32:04.380 : en:Chapter 10
00:33:17.036 : en:Chapter 11
00:37:17.818 : en:Chapter 12
00:42:35.469 : en:Chapter 13
00:48:13.140 : en:Chapter 14
00:54:12.249 : en:Chapter 15
01:00:01.598 : en:Chapter 16
01:06:19.809 : en:Chapter 17
01:09:28.289 : en:Chapter 18
01:11:17.898 : en:Chapter 19
01:15:51.880 : en:Chapter 20
01:21:00.689 : en:Chapter 21
01:24:57.675 : en:Chapter 22
01:28:20.461 : en:Chapter 23



BRRip Screenshots

Gojira / Godzilla (1954) [The Criterion Collection]

Gojira / Godzilla (1954) [The Criterion Collection]

Gojira / Godzilla (1954) [The Criterion Collection]


BDRip 720p Screenshots

Gojira / Godzilla (1954) [The Criterion Collection]

Gojira / Godzilla (1954) [The Criterion Collection]

Gojira / Godzilla (1954) [The Criterion Collection]


BDRip 1080p Screenshots

Gojira / Godzilla (1954) [The Criterion Collection]

Gojira / Godzilla (1954) [The Criterion Collection]

Gojira / Godzilla (1954) [The Criterion Collection]


Come Visit My Blog (•‿•)