Glory (1989) [Ramastered]

Glory (1989) [Ramastered]

Glory (1989) [Ramastered]
BDRip 720p | MKV | 1280x688 | AVC@7031 kb/s | English AC3@640 kb/s | 6 channels | 2 h 2 min | 6.54 GB
Genre: Drama, History, War

Robert Gould Shaw leads the US Civil War's first all-black volunteer company, fighting prejudices of both his own Union army and the Confederates.

IMDB - Won 3 Oscars. Another 11 wins & 16 nominations


General
Unique ID : 221447045800007739884786307640116624678 (0xA6992650220CC6D7AEBD7F794983BD26)
Complete name : D:\A\Glory.1989.REMASTERED.720p.BluRay.x264-SADPANDA.mkv
Format : Matroska
Format version : Version 4 / Version 2
File size : 6.55 GiB
Duration : 2 h 2 min
Overall bit rate : 7 670 kb/s
Encoded date : UTC 2017-01-02 00:45:07
Writing application : mkvmerge v9.6.0 ('Slave To Your Mind') 64bit
Writing library : libebml v1.3.4 + libmatroska v1.4.5

Video
ID : 1
Format : AVC
Format/Info : Advanced Video Codec
Format profile : High@L4.1
Format settings, CABAC : Yes
Format settings, ReFrames : 5 frames
Codec ID : V_MPEG4/ISO/AVC
Duration : 2 h 2 min
Bit rate : 7 031 kb/s
Width : 1 280 pixels
Height : 688 pixels
Display aspect ratio : 1.85:1
Frame rate mode : Constant
Frame rate : 23.976 (24000/1001) FPS
Color space : YUV
Chroma subsampling : 4:2:0
Bit depth : 8 bits
Scan type : Progressive
Bits/(Pixel*Frame) : 0.333
Stream size : 6.00 GiB (92%)
Writing library : x264 core 148 r2744 b97ae06
Encoding settings : cabac=1 / ref=5 / deblock=1:-3:-3 / analyse=0x3:0x113 / me=umh / subme=8 / psy=1 / psy_rd=1.00:0.25 / mixed_ref=1 / me_range=24 / chroma_me=1 / trellis=1 / 8x8dct=1 / cqm=0 / deadzone=21,11 / fast_pskip=1 / chroma_qp_offset=-4 / threads=21 / lookahead_threads=3 / sliced_threads=0 / nr=0 / decimate=1 / interlaced=0 / bluray_compat=0 / constrained_intra=0 / bframes=3 / b_pyramid=2 / b_adapt=1 / b_bias=0 / direct=3 / weightb=1 / open_gop=0 / weightp=2 / keyint=240 / keyint_min=24 / scenecut=40 / intra_refresh=0 / rc_lookahead=50 / rc=2pass / mbtree=1 / bitrate=7031 / ratetol=1.0 / qcomp=0.60 / qpmin=0 / qpmax=69 / qpstep=4 / cplxblur=20.0 / qblur=0.5 / ip_ratio=1.40 / aq=1:0.75
Default : Yes
Forced : No

Audio
ID : 2
Format : AC-3
Format/Info : Audio Coding 3
Mode extension : CM (complete main)
Format settings, Endianness : Big
Codec ID : A_AC3
Duration : 2 h 2 min
Bit rate mode : Constant
Bit rate : 640 kb/s
Channel(s) : 6 channels
Channel positions : Front: L C R, Side: L R, LFE
Sampling rate : 48.0 kHz
Frame rate : 31.250 FPS (1536 spf)
Bit depth : 16 bits
Compression mode : Lossy
Stream size : 560 MiB (8%)
Language : English
Default : Yes
Forced : No

Menu
00:00:00.000 : en:00:00:00.000
00:08:28.049 : en:00:08:28.049
00:17:17.828 : en:00:17:17.828
00:21:55.022 : en:00:21:55.022
00:29:55.252 : en:00:29:55.252
00:36:53.461 : en:00:36:53.461
00:50:45.709 : en:00:50:45.709
00:56:42.733 : en:00:56:42.733
01:04:52.722 : en:01:04:52.722
01:12:09.617 : en:01:12:09.617
01:17:47.538 : en:01:17:47.538
01:27:55.687 : en:01:27:55.687
01:36:09.889 : en:01:36:09.889
01:42:32.438 : en:01:42:32.438
01:48:20.577 : en:01:48:20.577
01:52:35.916 : en:01:52:35.916


BDRip 720p Screenshots

Glory (1989) [Ramastered]

Glory (1989) [Ramastered]

Glory (1989) [Ramastered]

Glory (1989) [Ramastered]


Come Visit My Blog (•‿•)