Devushka s korobkoy / The Girl with the Hat Box / Девушка с коробкой (1927) [ReUp]

Devushka s korobkoy / The Girl with the Hat Box / Девушка с коробкой (1927) [ReUp]

Devushka s korobkoy / The Girl with the Hat Box / Девушка с коробкой (1927)
DVD Video, DVD9 | 1hr 05mn | PAL 4:3 | 720x576 | 7.01 Gb
Russian: Dolby AC3, 2 ch; Subtitle: Russian intertitles + English subs
DVD Video, DVD5 | 1hr 05mn | PAL 4:3 | 720x576 | 2.98 Gb
Russian: Dolby AC3, 2 ch; Subtitle: English, French, German, Spanish, Italian, Portuguese
–––––––––––––––––––––––––––––
DVDRip | Avi | XVID, 640x480, ~ 2.8 Kbps | 01hr 05mn | 1.37 GB
Russian: AC3, 2 ch, 256 kbps; Russian intertitles + English subs (Hardcoded)
–––––––––––––––––––––––––––––
DVDRip | MKV | AVC, 720x576, ~ 2.0 Kbps | 01hr 05mn | 1.0 GB
Russian: AC3, 2 ch, 192 kbps; Russian intertitles + Subs: English, French, German, Spanish, Italian, Portuguese
–––––––––––––––––––––––––––––
Genre: Comedy | Drama | Romance
imdb 7.4/10 (441 votes)
ru.wikipedia.org


Director: Boris Barnet
Writers: Vadim Shershenevich, Valentin Turkin
Stars: Anna Sten, Vladimir Mikhaylov, Vladimir Fogel

Country: Soviet Union

The Girl with the Hat Box established Barnet's reputation. The charming Anna (Anna Sten) works in a hat shop, sharing her small apartment with a penniless student. A supposedly worthless lottery ticket from her employer turns into a gold mine, leading to a madcap chase for the ticket - and her love.


Название: Девушка с коробкой
Год выпуска: 1927
жанр: Драма, мелодрама, комедия
Выпущено: Россия, СССР
Режиссер: Борис Барнет
В ролях: Анна Стэн, Владимир Михайлов, Владимир Фогель, Иван Коваль-Самборский, Серафима Бирман

О фильме: Одна из первых работ кинорежиссёра Бориса Барнета. Поставленная с целью пропаганды государственных выигрышных займов, комедия «интересна своими новаторскими попытками в разработке характеров героев, привлекает лиризмом повествования», — значится в титрах фильма.

Издание от Ruscico: Disk info
Серия: коллекция «Киноакадемия»



DVD9 disc made in Hyperkino format with interactive academic commentaries.



Title: GirlBox.27.D9
Size: 6.03 Gb ( 6 327 630,00 KBytes ) - DVD-9
Enabled regions: 1, 2, 3, 4, 5, 6, 7, 8

VTS_01 :
Play Length: 00:00:24
Video: PAL 4:3 (720x576) VBR

VTS_02 :
Play Length: 00:00:22
Video: PAL 4:3 (720x576) VBR
Audio:
Russian (Dolby AC3, 6 ch)

VTS_03 :
Play Length: 00:00:11
Video: PAL 4:3 (720x576) VBR

VTS_04 :
Play Length: 01:05:14
Video: PAL 4:3 (720x576) VBR
Audio:
Russian (Dolby AC3, 2 ch)
Subtitles:
Russian

VTS_05 :
Play Length: 00:00:07
Video: PAL 4:3 (720x576) VBR
Audio:
Not specified (Dolby AC3, 2 ch)
Subtitles:
English

VTS_06 :
Play Length: 00:01:23
Video: PAL 4:3 (720x576) VBR
Audio:
Not specified (Dolby AC3, 2 ch)
Subtitles:
English

VTS_07 :
Play Length: 00:01:28
Video: PAL 4:3 (720x576) VBR
Audio:
Not specified (Dolby AC3, 2 ch)
Subtitles:
English

VTS_08 :
Play Length: 00:00:05
Video: PAL 4:3 (720x576) VBR
Audio:
Not specified (Dolby AC3, 2 ch)
Subtitles:
English

VTS_09 :
Play Length: 00:00:39
Video: PAL 4:3 (720x576) VBR
Audio:
Not specified (Dolby AC3, 2 ch)
Subtitles:
English

VTS_10 :
Play Length: 00:00:18
Video: PAL 4:3 (720x576) VBR
Audio:
Not specified (Dolby AC3, 2 ch)
Subtitles:
English

VTS_11 :
Play Length: 01:05:14
Video: PAL 4:3 (720x576) VBR
Audio:
Russian (Dolby AC3, 2 ch)
Subtitles:
English



Screenshots DVD9(click to enlarge to original size):

Devushka s korobkoy / The Girl with the Hat Box / Девушка с коробкой (1927) [ReUp]

Devushka s korobkoy / The Girl with the Hat Box / Девушка с коробкой (1927) [ReUp]

Devushka s korobkoy / The Girl with the Hat Box / Девушка с коробкой (1927) [ReUp]

Devushka s korobkoy / The Girl with the Hat Box / Девушка с коробкой (1927) [ReUp]

Devushka s korobkoy / The Girl with the Hat Box / Девушка с коробкой (1927) [ReUp]

Devushka s korobkoy / The Girl with the Hat Box / Девушка с коробкой (1927) [ReUp]

Devushka s korobkoy / The Girl with the Hat Box / Девушка с коробкой (1927) [ReUp]




DVD5 disc contains the film with optional subtitles.



Title: GirlBox.27.D5
Size: 2.98 Gb ( 3 123 934,00 KBytes ) - DVD-5
Enabled regions: 1, 2, 3, 4, 5, 6, 7, 8

VTS_01 :
Play Length: 00:00:24
Video: PAL 4:3 (720x576) VBR

VTS_02 :
Play Length: 00:00:22
Video: PAL 4:3 (720x576) VBR
Audio:
Russian (Dolby AC3, 6 ch)

VTS_03 :
Play Length: 01:05:14
Video: PAL 4:3 (720x576) VBR
Audio:
Russian (Dolby AC3, 2 ch)
Subtitles:
English
Francais
Espanol
Italiano
Deutsch
Portugues



Screenshots DVD5(click to enlarge to original size):

Devushka s korobkoy / The Girl with the Hat Box / Девушка с коробкой (1927) [ReUp]

Devushka s korobkoy / The Girl with the Hat Box / Девушка с коробкой (1927) [ReUp]

Devushka s korobkoy / The Girl with the Hat Box / Девушка с коробкой (1927) [ReUp]

Devushka s korobkoy / The Girl with the Hat Box / Девушка с коробкой (1927) [ReUp]

Devushka s korobkoy / The Girl with the Hat Box / Девушка с коробкой (1927) [ReUp]



Thanks to original uploader






General
Complete name : D:\GirlBox.27.Dr.avi
Format : AVI
Format/Info : Audio Video Interleave
File size : 1.37 GiB
Duration : 1h 5mn
Overall bit rate : 3 004 Kbps
Director : Release RSU75 for Avaxhm.com
Writing application : VirtualDubMod 1.5.4.1 (build 2178/release)
Writing library : VirtualDub build 32507/release

Video
ID : 0
Format : MPEG-4 Visual
Format profile : Advanced Simple@L5
Format settings, BVOP : 1
Format settings, QPel : No
Format settings, GMC : No warppoints
Format settings, Matrix : Custom
Codec ID : XVID
Codec ID/Hint : XviD
Duration : 1h 5mn
Bit rate : 2 803 Kbps
Width : 640 pixels
Height : 480 pixels
Display aspect ratio : 4:3
Frame rate : 25.000 fps
Color space : YUV
Chroma subsampling : 4:2:0
Bit depth : 8 bits
Scan type : Progressive
Compression mode : Lossy
Bits/(Pixel*Frame) : 0.365
Stream size : 1.28 GiB (93%)
Writing library : XviD 1.2.1 (UTC 2008-12-04)

Audio
ID : 1
Format : AC-3
Format/Info : Audio Coding 3
Mode extension : CM (complete main)
Format settings, Endianness : Big
Codec ID : 2000
Duration : 1h 5mn
Bit rate mode : Constant
Bit rate : 192 Kbps
Channel(s) : 2 channels
Channel positions : Front: L R
Sampling rate : 48.0 KHz
Bit depth : 16 bits
Compression mode : Lossy
Stream size : 89.6 MiB (6%)
Alignment : Split accross interleaves
Interleave, duration : 40 ms (1.00 video frame)
Interleave, preload duration : 500 ms



Screenshots DVDRip(click to enlarge to original size):

Devushka s korobkoy / The Girl with the Hat Box / Девушка с коробкой (1927) [ReUp]

Devushka s korobkoy / The Girl with the Hat Box / Девушка с коробкой (1927) [ReUp]

Devushka s korobkoy / The Girl with the Hat Box / Девушка с коробкой (1927) [ReUp]

Devushka s korobkoy / The Girl with the Hat Box / Девушка с коробкой (1927) [ReUp]

Devushka s korobkoy / The Girl with the Hat Box / Девушка с коробкой (1927) [ReUp]








General
Unique ID : 207407120301628851082711222393497027406 (0x9C09288ABA10DAE9A518527E1099834E)
Complete name : M:\GirlBox.27.Dr.Mkv\GirlBox.27.Dr.Mkv.mkv
Format : Matroska
Format version : Version 4 / Version 2
File size : 1 023 MiB
Duration : 1 h 5 min
Overall bit rate : 2 192 kb/s
Movie name : Release RSU75
Encoded date : UTC 2017-06-21 04:39:30
Writing application : mkvmerge v6.6.0 ('The Edge Of The In Between') built on Dec 1 2013 17:55:00
Writing library : libebml v1.3.0 + libmatroska v1.4.1

Video
ID : 1
Format : AVC
Format/Info : Advanced Video Codec
Format profile : Baseline@L3
Format settings, CABAC : No
Format settings, ReFrames : 1 frame
Codec ID : V_MPEG4/ISO/AVC
Duration : 1 h 5 min
Bit rate : 2 000 kb/s
Width : 720 pixels
Height : 576 pixels
Display aspect ratio : 4:3
Frame rate mode : Constant
Frame rate : 25.000 FPS
Standard : PAL
Color space : YUV
Chroma subsampling : 4:2:0
Bit depth : 8 bits
Scan type : Progressive
Bits/(Pixel*Frame) : 0.193
Stream size : 913 MiB (89%)
Writing library : x264 core 144 r2533 c8a773e
Encoding settings : cabac=0 / ref=1 / deblock=1:0:0 / analyse=0x1:0x111 / me=hex / subme=7 / psy=1 / psy_rd=1.00:0.00 / mixed_ref=0 / me_range=16 / chroma_me=1 / trellis=1 / 8x8dct=0 / cqm=0 / deadzone=21,11 / fast_pskip=1 / chroma_qp_offset=-2 / threads=3 / lookahead_threads=1 / sliced_threads=0 / nr=0 / decimate=1 / interlaced=0 / bluray_compat=0 / constrained_intra=0 / bframes=0 / weightp=0 / keyint=250 / keyint_min=25 / scenecut=40 / intra_refresh=0 / rc_lookahead=40 / rc=abr / mbtree=1 / bitrate=2000 / ratetol=1.0 / qcomp=0.60 / qpmin=10 / qpmax=51 / qpstep=4 / ip_ratio=1.41 / aq=1:1.00
Language : English
Default : Yes
Forced : No

Audio
ID : 2
Format : AC-3
Format/Info : Audio Coding 3
Mode extension : CM (complete main)
Format settings, Endianness : Big
Codec ID : A_AC3
Duration : 1 h 5 min
Bit rate mode : Constant
Bit rate : 192 kb/s
Channel(s) : 2 channels
Channel positions : Front: L R
Sampling rate : 48.0 kHz
Frame rate : 31.250 FPS (1536 spf)
Bit depth : 16 bits
Compression mode : Lossy
Stream size : 89.6 MiB (9%)
Language : Russian
Default : Yes
Forced : No

Text #1
ID : 3
Format : VobSub
Muxing mode : zlib
Codec ID : S_VOBSUB
Codec ID/Info : Picture based subtitle format used on DVDs
Language : English
Default : Yes
Forced : No

Text #2
ID : 4
Format : VobSub
Muxing mode : zlib
Codec ID : S_VOBSUB
Codec ID/Info : Picture based subtitle format used on DVDs
Language : French
Default : No
Forced : No

Text #3
ID : 5
Format : VobSub
Muxing mode : zlib
Codec ID : S_VOBSUB
Codec ID/Info : Picture based subtitle format used on DVDs
Language : Spanish
Default : No
Forced : No

Text #4
ID : 6
Format : VobSub
Muxing mode : zlib
Codec ID : S_VOBSUB
Codec ID/Info : Picture based subtitle format used on DVDs
Language : Italian
Default : No
Forced : No

Text #5
ID : 7
Format : VobSub
Muxing mode : zlib
Codec ID : S_VOBSUB
Codec ID/Info : Picture based subtitle format used on DVDs
Language : German
Default : No
Forced : No

Text #6
ID : 8
Format : VobSub
Muxing mode : zlib
Codec ID : S_VOBSUB
Codec ID/Info : Picture based subtitle format used on DVDs
Language : Portuguese
Default : No
Forced : No

Menu
00:00:00.000 : en:Chapter 01
00:07:06.840 : en:Chapter 02
00:12:21.040 : en:Chapter 03
00:20:20.560 : en:Chapter 04
00:30:57.920 : en:Chapter 05
00:37:56.360 : en:Chapter 06
00:46:01.080 : en:Chapter 07
00:50:54.600 : en:Chapter 08



Screenshots DVDRip MKV(click to enlarge to original size):

Devushka s korobkoy / The Girl with the Hat Box / Девушка с коробкой (1927) [ReUp]

Devushka s korobkoy / The Girl with the Hat Box / Девушка с коробкой (1927) [ReUp]

Devushka s korobkoy / The Girl with the Hat Box / Девушка с коробкой (1927) [ReUp]

Devushka s korobkoy / The Girl with the Hat Box / Девушка с коробкой (1927) [ReUp]

Devushka s korobkoy / The Girl with the Hat Box / Девушка с коробкой (1927) [ReUp]




–––––––––––––––––––––––––––––––––––––––-
>>> Другие российские и советские фильмы <<< OR >>> "Россия" <<<
–––––––––––––––––––––––––––––––––––––––-
>>> Visit Blog RSU75 Here <<<
–––––––––––––––––––––––––––––––––––––––-