PBS - Geronimo and the Apache Resistance (1988)

PBS - Geronimo and the Apache Resistance (1988)

PBS - Geronimo and the Apache Resistance (1988)
PDTV | 720 x 540 | .MKV/AVC @ 1131 Kbps | 56 min 21 s | 482 MB
Audio: English AAC 64.0 Kbps, 2 channels | Subs: None
Genre: Documentary

The story of a tragic collision of two civilisations, each with dramatically different views of both the world and of each other. In 1886, the US government mobilised 5,000 men to capture this legendary Apache who was believed to possess magical powers. Who was the legendary Geronimo? Who were the Apache? Or, more to the point, who were the Chiricahua Apache? And what was their story, in reality? To an Apache the past is traditionally a closed subject. To speak of the dead is taboo. So the Chiricahua have kept their experience largely to themselves - until now. This film is a privileged view. The Chiricahua have agreed to talk on camera as they never have before. For 20 years Geronimo and his people fought to keep their land and way of life. For 27 years they were held as prisoners of war, longer than anyone in our history.

General
Unique ID : 208137361198879913302479057846777522331 (0x9C95CC32A68C42E5B82582E6BFA1A89B)
Complete name : PBS.Geronimo.and.the.Apache.Resistance.mkv
Format : Matroska
Format version : Version 4 / Version 2
File size : 482 MiB
Duration : 56 min 21 s
Overall bit rate : 1 197 kb/s
Movie name : Geronimo and the Apache Resistance
Encoded date : UTC 2017-08-03 18:49:25
Writing application : mkvmerge v14.0.0 ('Flow') 64bit
Writing library : libebml v1.3.4 + libmatroska v1.4.5

Video
ID : 1
Format : AVC
Format/Info : Advanced Video Codec
Format profile : Main@L3.1
Format settings, CABAC : Yes
Format settings, ReFrames : 4 frames
Codec ID : V_MPEG4/ISO/AVC
Duration : 56 min 21 s
Bit rate : 1 131 kb/s
Width : 720 pixels
Height : 540 pixels
Display aspect ratio : 4:3
Frame rate mode : Constant
Frame rate : 25.000 FPS
Color space : YUV
Chroma subsampling : 4:2:0
Bit depth : 8 bits
Scan type : Progressive
Bits/(Pixel*Frame) : 0.116
Stream size : 456 MiB (94%)
Writing library : x264 core 152 r2851 MVGroup
Encoding settings : cabac=1 / ref=3 / deblock=1:0:0 / analyse=0x1:0x111 / me=umh / subme=9 / psy=1 / psy_rd=1.00:0.00 / mixed_ref=1 / me_range=16 / chroma_me=1 / trellis=1 / 8x8dct=0 / cqm=0 / deadzone=21,11 / fast_pskip=0 / chroma_qp_offset=-2 / threads=3 / lookahead_threads=1 / sliced_threads=0 / nr=0 / decimate=1 / interlaced=0 / bluray_compat=0 / constrained_intra=0 / bframes=6 / b_pyramid=2 / b_adapt=2 / b_bias=0 / direct=1 / weightb=1 / open_gop=0 / weightp=2 / keyint=250 / keyint_min=25 / scenecut=40 / intra_refresh=0 / rc_lookahead=40 / rc=crf / mbtree=1 / crf=20.0 / qcomp=0.60 / qpmin=0 / qpmax=69 / qpstep=4 / ip_ratio=1.40 / aq=1:1.00
Language : English
Default : Yes
Forced : No

Audio
ID : 2
Format : AAC
Format/Info : Advanced Audio Codec
Format profile : HE-AAC / LC
Codec ID : A_AAC
Duration : 56 min 21 s
Bit rate : 64.0 kb/s
Channel(s) : 2 channels
Channel positions : Front: L R
Sampling rate : 48.0 kHz / 24.0 kHz
Frame rate : 23.438 FPS (1024 spf)
Compression mode : Lossy
Delay relative to video : 31 ms
Stream size : 25.8 MiB (5%)
Language : English
Default : Yes
Forced : No
Screenshots

PBS - Geronimo and the Apache Resistance (1988)

PBS - Geronimo and the Apache Resistance (1988)

PBS - Geronimo and the Apache Resistance (1988)

PBS - Geronimo and the Apache Resistance (1988)

PBS - Geronimo and the Apache Resistance (1988)

Welcome to my blog - daily update!

PBS - Geronimo and the Apache Resistance (1988)