Ferris Bueller's Day Off (1986)

Ferris Bueller's Day Off (1986)

Ferris Bueller's Day Off (1986)
BDRip 1080p | MKV | 1920x816 | AVC@10.4 Mb/s | English AC3@640 kb/s
Subs: English | 6 channels | 1 h 43 min | 7.95 GB
Genre: Comedy

A high school wise guy is determined to have a day off from school, despite what the Principal thinks of that.

IMDB - Nominated for 1 Golden Globe. Another 1 win


General
Ferris.Buellers.Day.Off.1986.1080p.BluRay.x264-CiNEFiLE\Ferris.Buellers.Day.Off.1986.1080p.BluRay.x264-CiNEFiLE.mkv
Format : Matroska
Format version : Version 1
File size : 7.95 GiB
Duration : 1 h 43 min
Overall bit rate : 11.0 Mb/s
Encoded date : UTC 2009-04-23 08:17:41
Writing application : mkvmerge v2.5.3 ('Boogie') built on Mar 7 2009 15:00:41
Writing library : libebml v0.7.7 + libmatroska v0.8.1

Video
ID : 1
Format : AVC
Format/Info : Advanced Video Codec
Format profile : High@L4
Format settings, CABAC : Yes
Format settings, ReFrames : 5 frames
Codec ID : V_MPEG4/ISO/AVC
Duration : 1 h 43 min
Bit rate : 10.4 Mb/s
Width : 1 920 pixels
Height : 816 pixels
Display aspect ratio : 2.35:1
Frame rate mode : Constant
Frame rate : 23.976 FPS
Color space : YUV
Chroma subsampling : 4:2:0
Bit depth : 8 bits
Scan type : Progressive
Bits/(Pixel*Frame) : 0.277
Stream size : 7.33 GiB (92%)
Writing library : x264 core 67 r1144 4fc8c03
Encoding settings : cabac=1 / ref=5 / deblock=1:0:0 / analyse=0x3:0x113 / me=umh / subme=7 / psy_rd=1.0:0.0 / mixed_ref=1 / me_range=16 / chroma_me=1 / trellis=1 / 8x8dct=1 / cqm=0 / deadzone=21,11 / chroma_qp_offset=-2 / threads=6 / nr=0 / decimate=1 / mbaff=0 / bframes=3 / b_pyramid=1 / b_adapt=1 / b_bias=0 / direct=1 / wpredb=1 / keyint=250 / keyint_min=25 / scenecut=40 / rc=2pass / bitrate=10401 / ratetol=1.0 / qcomp=0.60 / qpmin=10 / qpmax=51 / qpstep=4 / cplxblur=20.0 / qblur=0.5 / ip_ratio=1.40 / pb_ratio=1.30 / aq=1:1.00
Language : English
Default : Yes
Forced : No

Audio
ID : 2
Format : AC-3
Format/Info : Audio Coding 3
Mode extension : CM (complete main)
Format settings, Endianness : Big
Codec ID : A_AC3
Duration : 1 h 43 min
Bit rate mode : Constant
Bit rate : 640 kb/s
Channel(s) : 6 channels
Channel positions : Front: L C R, Side: L R, LFE
Sampling rate : 48.0 kHz
Frame rate : 31.250 FPS (1536 spf)
Bit depth : 16 bits
Compression mode : Lossy
Stream size : 472 MiB (6%)
Default : Yes
Forced : No

Text
ID : 3
Format : UTF-8
Codec ID : S_TEXT/UTF8
Codec ID/Info : UTF-8 Plain Text
Language : English
Default : No
Forced : No


BDRip 1080p Screenshots

Ferris Bueller's Day Off (1986)

Ferris Bueller's Day Off (1986)

Ferris Bueller's Day Off (1986)

Ferris Bueller's Day Off (1986)


Come Visit My Blog (•‿•)