Fedora (1978)

Fedora (1978)

Fedora (1978)
BDRip 1080p | MKV | 1920x1040 | AVC@8931 kb/s | English DTS@1509 kb/s
2 channels | 1 h 48 min | 7.94 GB
Genre: Drama, Romance

Down-on-his-luck Hollywood producer Barry 'Dutch' Detweiler attempts to lure Fedora, a famous but reclusive film actress, out of retirement.

IMDB - 1 win & 1 nomination.


General
Fedora.1978.1080p.BluRay.x264-PSYCHD\Fedora.1978.1080p.BluRay.x264-PSYCHD.mkv
Format : Matroska
Format version : Version 2
File size : 7.94 GiB
Duration : 1 h 48 min
Overall bit rate : 10.4 Mb/s
Writing application : mkvmerge v6.6.0 ('The Edge Of The In Between') built on Dec 1 2013 17:55:00
Writing library : libebml v1.3.0 + libmatroska v1.4.1

Video
ID : 1
Format : AVC
Format/Info : Advanced Video Codec
Format profile : High@L4.1
Format settings, CABAC : Yes
Format settings, ReFrames : 4 frames
Codec ID : V_MPEG4/ISO/AVC
Duration : 1 h 48 min
Bit rate : 8 931 kb/s
Width : 1 920 pixels
Height : 1 040 pixels
Display aspect ratio : 1.85:1
Frame rate mode : Constant
Frame rate : 25.000 FPS
Color space : YUV
Chroma subsampling : 4:2:0
Bit depth : 8 bits
Scan type : Progressive
Bits/(Pixel*Frame) : 0.179
Stream size : 6.64 GiB (84%)
Writing library : x264 core 142 r2453 ea0ca51
Encoding settings : cabac=1 / ref=4 / deblock=1:-3:-3 / analyse=0x3:0x133 / me=umh / subme=8 / psy=1 / psy_rd=1.00:0.15 / mixed_ref=1 / me_range=16 / chroma_me=1 / trellis=1 / 8x8dct=1 / cqm=0 / deadzone=21,11 / fast_pskip=0 / chroma_qp_offset=-3 / threads=12 / lookahead_threads=2 / sliced_threads=0 / nr=0 / decimate=1 / interlaced=0 / bluray_compat=0 / constrained_intra=0 / bframes=3 / b_pyramid=2 / b_adapt=2 / b_bias=0 / direct=3 / weightb=1 / open_gop=0 / weightp=2 / keyint=250 / keyint_min=25 / scenecut=40 / intra_refresh=0 / rc_lookahead=50 / rc=2pass / mbtree=1 / bitrate=8931 / ratetol=1.0 / qcomp=0.60 / qpmin=0 / qpmax=69 / qpstep=4 / cplxblur=20.0 / qblur=0.5 / ip_ratio=1.40 / aq=1:1.00
Language : English
Default : Yes
Forced : No

Audio
ID : 2
Format : DTS
Format/Info : Digital Theater Systems
Mode : 16
Format settings, Endianness : Big
Codec ID : A_DTS
Duration : 1 h 48 min
Bit rate mode : Constant
Bit rate : 1 509 kb/s
Channel(s) : 2 channels
Channel positions : Front: L R
Sampling rate : 48.0 kHz
Frame rate : 93.750 FPS (512 spf)
Bit depth : 24 bits
Compression mode : Lossy
Stream size : 1.15 GiB (14%)
Language : English
Default : Yes
Forced : No

Menu
00:00:00.000 : en:00:00:00.000
00:09:42.920 : en:00:09:42.920
00:21:48.520 : en:00:21:48.520
00:28:27.920 : en:00:28:27.920
00:35:29.480 : en:00:35:29.480
00:45:03.160 : en:00:45:03.160
00:52:22.320 : en:00:52:22.320
01:01:11.200 : en:01:01:11.200
01:09:50.000 : en:01:09:50.000
01:18:02.640 : en:01:18:02.640
01:25:19.400 : en:01:25:19.400
01:28:01.920 : en:01:28:01.920
01:38:05.280 : en:01:38:05.280
01:47:42.640 : en:01:47:42.640


BDRip 1080p Screenshots

Fedora (1978)

Fedora (1978)

Fedora (1978)

Fedora (1978)

Fedora (1978)


Come Visit My Blog (•‿•)