Fame (1980)

Fame (1980)

Fame (1980)
BDRip | MKV | AVC, 11.7 Mbps | 1920x1080 | 23.976 fps | 12.3 GB | Runtime: 133 Min
Audio : English DTS 1510 Kbps | 6 channels | 48 KHz
Subtitle : English, Chinese, French, German, Hungarian, Indonesian, Italian, Japanese, Korean, Spainsh
Genre : Drama | Music | Musical

At the New York City High School for the Performing Arts, students get specialized training that often leads to success as actors, singers, etc. This movie follows four students from the time when they audition to get into the school, through graduation. They are the brazen Coco Hernandez, shy Doris Finsecker, sensitive gay Montgomery MacNeil, and brash, abrasive Raul Garcia.
IMDB


Video
ID : 1
Format : AVC
Format/Info : Advanced Video Codec
Format profile : High@L4.1
Format settings, CABAC : Yes
Format settings, ReFrames : 4 frames
Codec ID : V_MPEG4/ISO/AVC
Duration : 2h 13mn
Bit rate : 11.7 Mbps
Width : 1 920 pixels
Height : 1 080 pixels
Display aspect ratio : 16:9
Frame rate mode : Constant
Frame rate : 23.976 (24000/1001) fps
Color space : YUV
Chroma subsampling : 4:2:0
Bit depth : 8 bits
Scan type : Progressive
Bits/(Pixel*Frame) : 0.236
Stream size : 11.0 GiB (88%)
Title : Fame 1980 Blu-ray 1080p x264 DTS 5.1-HighCode
Writing library : x264 core 146 r2538 121396c
Encoding settings : cabac=1 / ref=4 / deblock=1:-3:-3 / analyse=0x3:0x133 / me=umh / subme=11 / psy=0 / mixed_ref=0 / me_range=24 / chroma_me=1 / trellis=2 / 8x8dct=1 / cqm=0 / deadzone=21,11 / fast_pskip=0 / chroma_qp_offset=1 / threads=12 / lookahead_threads=1 / sliced_threads=0 / nr=0 / decimate=1 / interlaced=0 / bluray_compat=0 / constrained_intra=0 / bframes=6 / b_pyramid=2 / b_adapt=2 / b_bias=0 / direct=3 / weightb=1 / open_gop=0 / weightp=2 / keyint=240 / keyint_min=23 / scenecut=40 / intra_refresh=0 / rc_lookahead=200 / rc=crf / mbtree=1 / crf=16.8 / qcomp=0.64 / qpmin=0 / qpmax=69 / qpstep=4 / vbv_maxrate=62500 / vbv_bufsize=78125 / crf_max=0.0 / nal_hrd=none / filler=0 / ip_ratio=1.30 / aq=1:0.70
Default : Yes
Forced : No

Audio
ID : 2
Format : DTS
Format/Info : Digital Theater Systems
Mode : 16
Format settings, Endianness : Big
Codec ID : A_DTS
Duration : 2h 13mn
Bit rate mode : Constant
Bit rate : 1 510 Kbps
Channel(s) : 6 channels
Channel positions : Front: L C R, Side: L R, LFE
Sampling rate : 48.0 KHz
Frame rate : 93.750 fps (512 spf)
Bit depth : 24 bits
Compression mode : Lossy
Stream size : 1.41 GiB (11%)
Language : English
Default : Yes
Forced : No

Text #1
ID : 3
Format : UTF-8
Codec ID : S_TEXT/UTF8
Codec ID/Info : UTF-8 Plain Text
Duration : 2h 8mn
Bit rate : 63 bps
Count of elements : 1513
Stream size : 60.4 KiB (0%)
Language : English
Default : Yes
Forced : No

Text #2
ID : 4
Format : UTF-8
Codec ID : S_TEXT/UTF8
Codec ID/Info : UTF-8 Plain Text
Duration : 2h 13mn
Bit rate : 64 bps
Count of elements : 1624
Stream size : 62.8 KiB (0%)
Title : sdh
Language : English
Default : No
Forced : No

Text #3
ID : 5
Format : VobSub
Muxing mode : zlib
Codec ID : S_VOBSUB
Codec ID/Info : Picture based subtitle format used on DVDs
Duration : 2h 13mn
Bit rate : 6 525 bps
Count of elements : 1346
Stream size : 6.21 MiB (0%)
Language : Chinese
Default : No
Forced : No

Text #4
ID : 6
Format : UTF-8
Codec ID : S_TEXT/UTF8
Codec ID/Info : UTF-8 Plain Text
Duration : 2h 12mn
Bit rate : 45 bps
Count of elements : 1197
Stream size : 44.3 KiB (0%)
Language : French
Default : No
Forced : No

Text #5
ID : 7
Format : UTF-8
Codec ID : S_TEXT/UTF8
Codec ID/Info : UTF-8 Plain Text
Duration : 2h 4mn
Bit rate : 59 bps
Count of elements : 1343
Stream size : 54.3 KiB (0%)
Language : German
Default : No
Forced : No

Text #6
ID : 8
Format : UTF-8
Codec ID : S_TEXT/UTF8
Codec ID/Info : UTF-8 Plain Text
Duration : 2h 13mn
Bit rate : 43 bps
Count of elements : 1324
Stream size : 42.1 KiB (0%)
Language : Hungarian
Default : No
Forced : No

Text #7
ID : 9
Format : UTF-8
Codec ID : S_TEXT/UTF8
Codec ID/Info : UTF-8 Plain Text
Duration : 2h 12mn
Bit rate : 52 bps
Count of elements : 1316
Stream size : 51.2 KiB (0%)
Language : Indonesian
Default : No
Forced : No

Text #8
ID : 10
Format : UTF-8
Codec ID : S_TEXT/UTF8
Codec ID/Info : UTF-8 Plain Text
Duration : 2h 13mn
Bit rate : 57 bps
Count of elements : 1360
Stream size : 55.9 KiB (0%)
Language : Italian
Default : No
Forced : No

Text #9
ID : 11
Format : VobSub
Muxing mode : zlib
Codec ID : S_VOBSUB
Codec ID/Info : Picture based subtitle format used on DVDs
Duration : 2h 6mn
Bit rate : 5 050 bps
Count of elements : 1672
Stream size : 4.57 MiB (0%)
Language : Japanese
Default : No
Forced : No

Text #10
ID : 12
Format : VobSub
Muxing mode : zlib
Codec ID : S_VOBSUB
Codec ID/Info : Picture based subtitle format used on DVDs
Duration : 2h 13mn
Bit rate : 4 374 bps
Count of elements : 1324
Stream size : 4.17 MiB (0%)
Language : Korean
Default : No
Forced : No

Text #11
ID : 13
Format : UTF-8
Codec ID : S_TEXT/UTF8
Codec ID/Info : UTF-8 Plain Text
Duration : 2h 13mn
Bit rate : 52 bps
Count of elements : 1313
Stream size : 51.3 KiB (0%)
Title : eu
Language : Spanish
Default : No
Forced : No

Text #12
ID : 14
Format : UTF-8
Codec ID : S_TEXT/UTF8
Codec ID/Info : UTF-8 Plain Text
Duration : 2h 13mn
Bit rate : 47 bps
Count of elements : 1308
Stream size : 46.6 KiB (0%)
Title : la
Language : Spanish
Default : No
Forced : No


Fame (1980)