Top Secret! (1984)

Top Secret! (1984)

Top Secret! (1984)
MOV | 1024x576 | Deutsch | H264 @ 1498 kbps | AAC @ 128 kbps | 1 h 22 min | 960 MiB
Genre: Comedy

Nick Rivers, ein amerikanischer Rock ’n’ Roll-Sänger reist zusammen mit seinem Manager nach Ostdeutschland, um auf einem Kultur-Festival aufzutreten. Allerdings weiß er zunächst nicht, dass das Festival als ein Ablenkungsmanöver dienen soll, damit die Ostregierung die NATO-U-Bootflotte bei einem Manöver in der Straße von Gibraltar sabotieren und damit das Kräfteverhältnis der Weltmächte einseitig verlagern kann, um Deutschland wieder zu „vereinen“.

FILM - Top Secret (1984) - HQ - Tele 5 - 23.06.2019.mp4 (960.1 MB)



General
Complete name : ./FILM - Top Secret (1984) - HQ - Tele 5 - 23.06.2019.mp4
Format : MPEG-4
Codec ID : M4V (isom/avc1/mp42)
File size : 960 MiB
Duration : 1 h 22 min
Overall bit rate mode : Variable
Overall bit rate : 1 630 kb/s
Encoded date : UTC 2019-06-23 20:31:00
Tagged date : UTC 2019-06-23 20:31:00

Video
ID : 1
Format : AVC
Format/Info : Advanced Video Codec
Format profile : High@L4.1
Format settings : CABAC / 2 Ref Frames
Format settings, CABAC : Yes
Format settings, RefFrames : 2 frames
Codec ID : avc1
Codec ID/Info : Advanced Video Coding
Duration : 1 h 22 min
Bit rate mode : Variable
Bit rate : 1 499 kb/s
Maximum bit rate : 2 250 kb/s
Width : 1 024 pixels
Height : 576 pixels
Display aspect ratio : 16:9
Frame rate mode : Constant
Frame rate : 25.000 FPS
Color space : YUV
Chroma subsampling : 4:2:0
Bit depth : 8 bits
Scan type : Progressive
Bits/(Pixel*Frame) : 0.102
Stream size : 883 MiB (92%)
Encoded date : UTC 2019-06-23 20:31:00
Tagged date : UTC 2019-06-23 20:31:00

Audio
ID : 2
Format : AAC
Format/Info : Advanced Audio Codec
Format profile : LC
Codec ID : mp4a-40-2
Duration : 1 h 22 min
Bit rate mode : Variable
Bit rate : 128 kb/s
Maximum bit rate : 131 kb/s
Channel(s) : 2 channels
Channel positions : Front: L R
Sampling rate : 48.0 kHz
Frame rate : 46.875 FPS (1024 SPF)
Compression mode : Lossy
Stream size : 73.8 MiB (8%)
Encoded date : UTC 2019-06-23 20:31:00
Tagged date : UTC 2019-06-23 20:31:00





Top Secret! (1984)


Top Secret! (1984)


Top Secret! (1984)


Top Secret! (1984)


Top Secret! (1984)