Schade, dass du eine Kanaille bist (1955)

Schade, dass du eine Kanaille bist (1955)

Schade, dass du eine Kanaille bist (1955)
MOV | 1280x720 | Deutsch | H264 @ 2999 kbps | AAC @ 128 kbps | 1 h 31 min | 2.00 GiB
Genre: Romance, Comedy

Sommersonntag in Rom. Taxifahrer Paolo poliert sein Auto, als Lina heranschlendert. Der grundehrliche Paolo, der auf ein gutes Geschäft hofft, fährt Lina und ihre zwei Begleiter ans Meer. Als er ihr ins Wasser folgt, schrillt die Alarmglocke. Man versucht seinen Wagen zu stehlen. Paolo macht keine Anzeige, weil er in Lina verliebt ist, spricht stattdessen mit ihrem Vater, Herr vom Scheitel bis zur Sohle, der sich als Taschendieb Signor Stroppiani herausstellt. Im Polizeipräsidium rettet Paolo die Familie und knallt seiner Kanaille endlich eine.

FILM - Schade, dass du eine Kanaille bist (1954) - HD - ONE HD - 23.06.2019.mp4 (2.0 GB)



General
Complete name : ./FILM - Schade, dass du eine Kanaille bist (1954) - HD - ONE HD - 23.06.2019.mp4
Format : MPEG-4
Codec ID : M4V (isom/avc1/mp42)
File size : 2.00 GiB
Duration : 1 h 31 min
Overall bit rate mode : Variable
Overall bit rate : 3 134 kb/s
Encoded date : UTC 2019-06-23 06:25:02
Tagged date : UTC 2019-06-23 06:25:02

Video
ID : 1
Format : AVC
Format/Info : Advanced Video Codec
Format profile : High@L4.1
Format settings : CABAC / 2 Ref Frames
Format settings, CABAC : Yes
Format settings, RefFrames : 2 frames
Format settings, GOP : M=3, N=50
Codec ID : avc1
Codec ID/Info : Advanced Video Coding
Duration : 1 h 31 min
Bit rate mode : Variable
Bit rate : 2 999 kb/s
Maximum bit rate : 4 500 kb/s
Width : 1 280 pixels
Height : 720 pixels
Display aspect ratio : 16:9
Frame rate mode : Constant
Frame rate : 50.000 FPS
Color space : YUV
Chroma subsampling : 4:2:0
Bit depth : 8 bits
Scan type : Progressive
Bits/(Pixel*Frame) : 0.065
Stream size : 1.92 GiB (96%)
Encoded date : UTC 2019-06-23 06:25:02
Tagged date : UTC 2019-06-23 06:25:02

Audio
ID : 2
Format : AAC
Format/Info : Advanced Audio Codec
Format profile : LC
Codec ID : mp4a-40-2
Duration : 1 h 31 min
Bit rate mode : Variable
Bit rate : 128 kb/s
Maximum bit rate : 130 kb/s
Channel(s) : 2 channels
Channel positions : Front: L R
Sampling rate : 48.0 kHz
Frame rate : 46.875 FPS (1024 SPF)
Compression mode : Lossy
Stream size : 82.1 MiB (4%)
Encoded date : UTC 2019-06-23 06:25:02
Tagged date : UTC 2019-06-23 06:25:02





Schade, dass du eine Kanaille bist (1955)


Schade, dass du eine Kanaille bist (1955)


Schade, dass du eine Kanaille bist (1955)


Schade, dass du eine Kanaille bist (1955)


Schade, dass du eine Kanaille bist (1955)