Every Time We Say Goodbye (1986)

Every Time We Say Goodbye (1986)

Every Time We Say Goodbye (1986)
WEB-DL 1080p | MKV | 1920x1080 | AVC@12.4 Mb/s | English AC3@224 kb/s
Subs: English | 2 channels | 1 h 37 min | 8.77 GB
Genre: Drama, Romance, War

A Protestant World War II pilot and a Jewish girl fall in love in Jerusalem, even though their diverse backgrounds threaten to pull them apart.



General
Every.Time.We.Say.Goodbye.1986.1080p.AMZN.WEB-DL.DDP2.0.x264-monkee\Every.Time.We.Say.Goodbye.1986.1080p.AMZN.WEB-DL.DDP2.0.x264-monkee.mkv
Format : Matroska
Format version : Version 4 / Version 2
File size : 8.77 GiB
Duration : 1 h 37 min
Overall bit rate mode : Variable
Overall bit rate : 12.8 Mb/s
Writing application : mkvmerge v12.0.0 ('Trust / Lust') 64bit
Writing library : libebml v1.3.4 + libmatroska v1.4.5

Video
ID : 1
Format : AVC
Format/Info : Advanced Video Codec
Format profile : High@L4
Format settings, CABAC : Yes
Format settings, ReFrames : 4 frames
Codec ID : V_MPEG4/ISO/AVC
Duration : 1 h 37 min
Bit rate mode : Variable
Bit rate : 12.4 Mb/s
Maximum bit rate : 15.0 Mb/s
Width : 1 920 pixels
Height : 1 080 pixels
Display aspect ratio : 16:9
Frame rate mode : Constant
Frame rate : 23.976 (24000/1001) FPS
Color space : YUV
Chroma subsampling : 4:2:0
Bit depth : 8 bits
Scan type : Progressive
Bits/(Pixel*Frame) : 0.249
Stream size : 8.44 GiB (96%)
Default : Yes
Forced : No
Color range : Limited
Color primaries : BT.709
Transfer characteristics : BT.709
Matrix coefficients : BT.709
Statistics Tags Issue : mkvmerge v12.0.0 ('Trust / Lust') 64bit 2017-11-18 05:46:33 / mkvmerge v12.0.0 ('Trust / Lust') 64bit
FromStats_BitRate : 12615335
FromStats_Duration : 01:37:44.692000000
FromStats_FrameCount : 140612
FromStats_StreamSize : 9248132333

Audio
ID : 2
Format : E-AC-3
Format/Info : Enhanced Audio Coding 3
Format settings, Endianness : Big
Codec ID : A_EAC3
Duration : 1 h 37 min
Bit rate mode : Constant
Bit rate : 224 kb/s
Channel(s) : 2 channels
Channel positions : Front: L R
Sampling rate : 48.0 kHz
Frame rate : 187.500 FPS (256 spf)
Compression mode : Lossy
Delay relative to video : 12 ms
Stream size : 157 MiB (2%)
Language : English
Default : Yes
Forced : No
Statistics Tags Issue : mkvmerge v12.0.0 ('Trust / Lust') 64bit 2017-11-18 05:46:33 / mkvmerge v12.0.0 ('Trust / Lust') 64bit
FromStats_BitRate : 224000
FromStats_Duration : 01:37:44.640000000
FromStats_FrameCount : 183270
FromStats_StreamSize : 164209920

Text
ID : 3
Format : UTF-8
Codec ID : S_TEXT/UTF8
Codec ID/Info : UTF-8 Plain Text
Language : English
Default : No
Forced : No
Statistics Tags Issue : mkvmerge v12.0.0 ('Trust / Lust') 64bit 2017-11-18 05:46:33 / mkvmerge v12.0.0 ('Trust / Lust') 64bit
FromStats_BitRate : 49
FromStats_Duration : 01:36:04.493000000
FromStats_FrameCount : 1191
FromStats_StreamSize : 35640


WEB-DL 1080p Screenshots

Every Time We Say Goodbye (1986)

Every Time We Say Goodbye (1986)

Every Time We Say Goodbye (1986)

Every Time We Say Goodbye (1986)

Every Time We Say Goodbye (1986)


Come Visit My Blog (•‿•)