Earth vs. the Flying Saucers (1956)

Earth vs. the Flying Saucers (1956)

Earth vs. the Flying Saucers (1956)
BDRip | MKV | 1920x1040 | English | H265 @ 4336 kbps | AC-3 @ 448 kbps | 1 h 23 min | 2.85 GiB
Subtitles: English
Genre: Action, Science Fiction

Test space rockets exploding at liftoff and increased reporting of UFO sightings culminate in a direct attempt by alien survivors of a dead, extra-galactic civilization to invade Earth from impervious flying saucers, using ray-weapons of mass destruction.

9232b8f3e0114571b2c533d040c44215.mkv (2.9 GB)



General
Unique ID : 82502838360437361326704825225539290403 (0x3E1177FC097E018920B32C709AF90523)
Complete name : ./9232b8f3e0114571b2c533d040c44215.mkv
Format : Matroska
Format version : Version 4 / Version 2
File size : 2.85 GiB
Duration : 1 h 23 min
Overall bit rate : 4 882 kb/s
Encoded date : UTC 2019-04-17 23:37:50
Writing application : HandBrake 1.2.2 2019022300
Writing library : Lavf58.20.100
ErrorDetectionType : Per level 1

Video
ID : 1
Format : HEVC
Format/Info : High Efficiency Video Coding
Format profile : Main 10@L4@Main
Codec ID : V_MPEGH/ISO/HEVC
Duration : 1 h 23 min
Bit rate : 4 337 kb/s
Width : 1 920 pixels
Height : 1 040 pixels
Display aspect ratio : 1.85:1
Frame rate mode : Constant
Frame rate : 23.976 (24000/1001) FPS
Color space : YUV
Chroma subsampling : 4:2:0
Bit depth : 10 bits
Bits/(Pixel*Frame) : 0.091
Stream size : 2.54 GiB (89%)
Writing library : x265 2.9:[Windows][GCC 8.2.0][64 bit] 10bit
Encoding settings : cpuid=1111039 / frame-threads=4 / numa-pools=16 / wpp / no-pmode / no-pme / no-psnr / no-ssim / log-level=2 / input-csp=1 / input-res=1920x1040 / interlace=0 / total-frames=0 / level-idc=0 / high-tier=1 / uhd-bd=0 / ref=3 / no-allow-non-conformance / no-repeat-headers / annexb / no-aud / no-hrd / info / hash=0 / no-temporal-layers / open-gop / min-keyint=24 / keyint=240 / gop-lookahead=0 / bframes=4 / b-adapt=2 / b-pyramid / bframe-bias=0 / rc-lookahead=20 / lookahead-slices=6 / scenecut=40 / radl=0 / no-intra-refresh / ctu=64 / min-cu-size=8 / no-rect / no-amp / max-tu-size=32 / tu-inter-depth=1 / tu-intra-depth=1 / limit-tu=0 / rdoq-level=0 / dynamic-rd=0.00 / no-ssim-rd / signhide / no-tskip / nr-intra=0 / nr-inter=0 / no-constrained-intra / strong-intra-smoothing / max-merge=2 / limit-refs=3 / no-limit-modes / me=1 / subme=2 / merange=57 / temporal-mvp / weightp / no-weightb / no-analyze-src-pics / deblock=0:0 / sao / no-sao-non-deblock / rd=3 / no-early-skip / rskip / no-fast-intra / no-tskip-fast / no-cu-lossless / no-b-intra / no-splitrd-skip / rdpenalty=0 / psy-rd=2.00 / psy-rdoq=0.00 / no-rd-refine / no-lossless / cbqpoffs=0 / crqpoffs=0 / rc=crf / crf=23.0 / qcomp=0.60 / qpstep=4 / stats-write=0 / stats-read=0 / ipratio=1.40 / pbratio=1.30 / aq-mode=1 / aq-strength=1.00 / cutree / zone-count=0 / no-strict-cbr / qg-size=32 / no-rc-grain / qpmax=69 / qpmin=0 / no-const-vbv / sar=1 / overscan=0 / videoformat=5 / range=0 / colorprim=1 / transfer=1 / colormatrix=1 / chromaloc=0 / display-window=0 / max-cll=0,0 / min-luma=0 / max-luma=1023 / log2-max-poc-lsb=8 / vui-timing-info / vui-hrd-info / slices=1 / no-opt-qp-pps / no-opt-ref-list-length-pps / no-multi-pass-opt-rps / scenecut-bias=0.05 / no-opt-cu-delta-qp / no-aq-motion / no-hdr / no-hdr-opt / no-dhdr10-opt / no-idr-recovery-sei / analysis-reuse-level=5 / scale-factor=0 / refine-intra=0 / refine-inter=0 / refine-mv=0 / no-limit-sao / ctu-info=0 / no-lowpass-dct / refine-mv-type=0 / copy-pic=1 / max-ausize-factor=1.0 / no-dynamic-refine / no-single-sei
Default : Yes
Forced : No
Color range : Limited
Color primaries : BT.709
Transfer characteristics : BT.709
Matrix coefficients : BT.709

Audio
ID : 2
Format : AC-3
Format/Info : Audio Coding 3
Format settings, Endianness : Big
Codec ID : A_AC3
Duration : 1 h 23 min
Bit rate mode : Constant
Bit rate : 448 kb/s
Channel(s) : 6 channels
Channel positions : Front: L C R, Side: L R, LFE
Sampling rate : 48.0 kHz
Frame rate : 31.250 FPS (1536 SPF)
Bit depth : 16 bits
Compression mode : Lossy
Stream size : 268 MiB (9%)
Title : Surround
Language : English
Service kind : Complete Main
Default : Yes
Forced : No

Text
ID : 3
Format : PGS
Codec ID : S_HDMV/PGS
Codec ID/Info : Picture based subtitle format used on BDs/HD-DVDs
Duration : 1 h 23 min
Language : English
Default : No
Forced : No

Menu
00:00:00.000 : :Chapter 1
00:10:44.352 : :Chapter 2
00:15:08.157 : :Chapter 3
00:18:06.252 : :Chapter 4
00:24:43.357 : :Chapter 5
00:30:14.563 : :Chapter 6
00:35:41.556 : :Chapter 7
00:37:50.226 : :Chapter 8
00:44:17.655 : :Chapter 9
00:49:17.121 : :Chapter 10
00:52:07.958 : :Chapter 11
00:59:28.023 : :Chapter 12
01:05:46.651 : :Chapter 13
01:10:30.810 : :Chapter 14
01:13:03.170 : :Chapter 15
01:16:46.894 : :Chapter 16





Earth vs. the Flying Saucers (1956)


Earth vs. the Flying Saucers (1956)


Earth vs. the Flying Saucers (1956)


Earth vs. the Flying Saucers (1956)


Earth vs. the Flying Saucers (1956)