E.T. the Extra-Terrestrial (1982) [Repost]

E.T. the Extra-Terrestrial (1982) [Repost]

E.T. the Extra-Terrestrial (1982)
BDRip 720p | MKV | 1280x694 | AVC@8834 kb/s | English DTS@1509 kb/s
Subs: English, Swedish, Portuguese, French | 6 channels | 1 h 54 min | 8.45 GB
Genre: Family, Sci-Fi

A troubled child summons the courage to help a friendly alien escape Earth and return to his home world.

IMDB - Won 4 Oscars. Another 47 wins & 33 nominations


General
E.T.The.Extra-Terrestrial.1982.720p.BluRay.DTS.x264-ThD\E.T.The.Extra-Terrestrial.1982.720p.BluRay.DTS.x264-ThD.mkv
Format : Matroska
Format version : Version 2
File size : 8.45 GiB
Duration : 1 h 54 min
Overall bit rate : 10.6 Mb/s
Encoded date : UTC 2012-09-30 17:25:44
Writing application : mkvmerge v5.5.0 ('Healer') built on Apr 6 2012 21:43:24
Writing library : libebml v1.2.3 + libmatroska v1.3.0

Video
ID : 1
Format : AVC
Format/Info : Advanced Video Codec
Format profile : High@L4.1
Format settings, CABAC : Yes
Format settings, ReFrames : 9 frames
Codec ID : V_MPEG4/ISO/AVC
Duration : 1 h 54 min
Bit rate : 8 834 kb/s
Width : 1 280 pixels
Height : 694 pixels
Display aspect ratio : 1.85:1
Frame rate mode : Constant
Frame rate : 23.976 (24000/1001) FPS
Color space : YUV
Chroma subsampling : 4:2:0
Bit depth : 8 bits
Scan type : Progressive
Bits/(Pixel*Frame) : 0.415
Stream size : 7.07 GiB (84%)
Writing library : x264 core 125 r2208kMod d9d2288
Encoding settings : cabac=1 / ref=9 / deblock=1:-3:-3 / analyse=0x3:0x133 / me=umh / subme=11 / psy=1 / fade_compensate=0.00 / psy_rd=1.05:0.00 / mixed_ref=1 / me_range=64 / chroma_me=1 / trellis=2 / 8x8dct=1 / cqm=0 / deadzone=21,11 / fast_pskip=0 / chroma_qp_offset=-2 / threads=6 / lookahead_threads=1 / sliced_threads=0 / nr=0 / decimate=0 / interlaced=0 / bluray_compat=0 / constrained_intra=0 / bframes=8 / b_pyramid=2 / b_adapt=2 / b_bias=0 / direct=3 / weightb=1 / open_gop=0 / weightp=2 / keyint=250 / keyint_min=23 / scenecut=60 / intra_refresh=0 / rc=crf / mbtree=0 / crf=18.0000 / qcomp=0.80 / qpmin=0 / qpmax=69 / qpstep=4 / ip_ratio=1.40 / pb_ratio=1.20 / aq=2:0.70
Language : English
Default : Yes
Forced : No

Audio
ID : 2
Format : DTS
Format/Info : Digital Theater Systems
Mode : 16
Format settings, Endianness : Big
Codec ID : A_DTS
Duration : 1 h 54 min
Bit rate mode : Constant
Bit rate : 1 509 kb/s
Channel(s) : 6 channels
Channel positions : Front: L C R, Side: L R, LFE
Sampling rate : 48.0 kHz
Frame rate : 93.750 FPS (512 spf)
Bit depth : 24 bits
Compression mode : Lossy
Stream size : 1.21 GiB (14%)
Title : English DTS 5.1 @ 1510 kbps
Language : English
Default : Yes
Forced : No

Text #1
ID : 3
Format : UTF-8
Codec ID : S_TEXT/UTF8
Codec ID/Info : UTF-8 Plain Text
Title : SDH
Language : English
Default : Yes
Forced : No

Text #2
ID : 4
Format : UTF-8
Codec ID : S_TEXT/UTF8
Codec ID/Info : UTF-8 Plain Text
Language : Swedish
Default : No
Forced : No

Text #3
ID : 5
Format : UTF-8
Codec ID : S_TEXT/UTF8
Codec ID/Info : UTF-8 Plain Text
Language : Portuguese
Default : No
Forced : No

Text #4
ID : 6
Format : UTF-8
Codec ID : S_TEXT/UTF8
Codec ID/Info : UTF-8 Plain Text
Language : French
Default : No
Forced : No

Menu
00:00:00.000 : :00:00:00.000
00:04:49.956 : :00:04:49.956
00:08:03.358 : :00:08:03.358
00:09:57.096 : :00:09:57.096
00:12:36.714 : :00:12:36.714
00:19:24.580 : :00:19:24.580
00:31:32.849 : :00:31:32.849
00:36:52.293 : :00:36:52.293
00:43:13.758 : :00:43:13.758
00:50:34.198 : :00:50:34.198
00:57:44.795 : :00:57:44.795
01:00:34.130 : :01:00:34.130
01:04:13.475 : :01:04:13.475
01:11:30.578 : :01:11:30.578
01:15:23.018 : :01:15:23.018
01:23:37.346 : :01:23:37.346
01:30:29.841 : :01:30:29.841
01:35:41.903 : :01:35:41.903
01:43:26.242 : :01:43:26.242
01:50:34.920 : :01:50:34.920


BDRip 720p Screenshots

E.T. the Extra-Terrestrial (1982) [Repost]

E.T. the Extra-Terrestrial (1982) [Repost]

E.T. the Extra-Terrestrial (1982) [Repost]

E.T. the Extra-Terrestrial (1982) [Repost]


Come Visit My Blog (•‿•)