Duell (1971)

Duell (1971)

Duell (1971)
WEB-DL | MKV | 1920x1040 | German / English | H264 @ 8238 kbps | DTS @ 768 kbps | 1 h 29 min | 6.56 GiB
Subtitles: German
Genre: Action, Thriller

Der Vertreter David Mann fährt auf einer öden Landstrasse durch die Wüste, als plötzlich ein Tanklastzug ohne ersichtlichen Grund Jagd auf ihn macht. Steven Spielberg produzierte seinen Debütfilm in nur dreizehn Tagen. Der ursprünglich für das Fernsehen entwickelte Film lief aufgrund seines Erfolges in einer längeren Fassung in die europäischen Kinos.



Duell.1971.German.DL.1080p.BluRay.x264-CONTRiBUTiON.idx (21.1 KB)
Duell.1971.German.DL.1080p.BluRay.x264-CONTRiBUTiON-eng.idx (31.4 KB)
Duell.1971.German.DL.1080p.BluRay.x264-CONTRiBUTiON-forced.sub (46.0 KB)
Duell.1971.German.DL.1080p.BluRay.x264-CONTRiBUTiON.sub (3.6 MB)
Duell.1971.German.DL.1080p.BluRay.x264-CONTRiBUTiON-forced.idx (1.4 KB)
Duell.1971.German.DL.1080p.BluRay.x264-CONTRiBUTiON.mkv (6.6 GB)
Duell.1971.German.DL.1080p.BluRay.x264-CONTRiBUTiON-eng.sub (4.3 MB)



General
Complete name : ./Duell.1971.German.DL.1080p.BluRay.x264-CONTRiBUTiON.mkv
Format : Matroska
Format version : Version 2
File size : 6.56 GiB
Duration : 1 h 29 min
Overall bit rate : 10.5 Mb/s
Writing application : mkvmerge v6.6.0 ('The Edge Of The In Between') built on Dec 1 2013 17:55:00
Writing library : libebml v1.3.0 + libmatroska v1.4.1

Video
ID : 1
Format : AVC
Format/Info : Advanced Video Codec
Format profile : High@L4.1
Format settings : CABAC / 4 Ref Frames
Format settings, CABAC : Yes
Format settings, RefFrames : 4 frames
Codec ID : V_MPEG4/ISO/AVC
Duration : 1 h 29 min
Bit rate : 8 238 kb/s
Width : 1 920 pixels
Height : 1 040 pixels
Display aspect ratio : 1.85:1
Frame rate mode : Constant
Frame rate : 23.976 (24000/1001) FPS
Color space : YUV
Chroma subsampling : 4:2:0
Bit depth : 8 bits
Scan type : Progressive
Bits/(Pixel*Frame) : 0.172
Stream size : 5.01 GiB (76%)
Writing library : x264 core 142 r2479 dd79a61
Encoding settings : cabac=1 / ref=4 / deblock=1:-3:-3 / analyse=0x3:0x133 / me=umh / subme=8 / psy=1 / psy_rd=1.00:0.15 / mixed_ref=1 / me_range=16 / chroma_me=1 / trellis=1 / 8x8dct=1 / cqm=0 / deadzone=21,11 / fast_pskip=0 / chroma_qp_offset=-3 / threads=12 / lookahead_threads=2 / sliced_threads=0 / nr=0 / decimate=1 / interlaced=0 / bluray_compat=0 / constrained_intra=0 / bframes=3 / b_pyramid=2 / b_adapt=2 / b_bias=0 / direct=3 / weightb=1 / open_gop=0 / weightp=2 / keyint=240 / keyint_min=23 / scenecut=40 / intra_refresh=0 / rc_lookahead=50 / rc=2pass / mbtree=1 / bitrate=8238 / ratetol=1.0 / qcomp=0.60 / qpmin=0 / qpmax=69 / qpstep=4 / cplxblur=20.0 / qblur=0.5 / ip_ratio=1.40 / aq=1:1.00
Language : English
Default : Yes
Forced : No

Audio #1
ID : 2
Format : DTS
Format/Info : Digital Theater Systems
Mode : 16
Format settings, Endianness : Big
Codec ID : A_DTS
Duration : 1 h 29 min
Bit rate mode : Constant
Bit rate : 768 kb/s
Channel(s) : 6 channels
Channel positions : Front: L C R, Side: L R, LFE
Sampling rate : 48.0 kHz
Frame rate : 93.750 FPS (512 SPF)
Bit depth : 24 bits
Compression mode : Lossy
Stream size : 490 MiB (7%)
Language : German
Default : Yes
Forced : No

Audio #2
ID : 3
Format : DTS
Format/Info : Digital Theater Systems
Mode : 16
Format settings, Endianness : Big
Codec ID : A_DTS
Duration : 1 h 29 min
Bit rate mode : Constant
Bit rate : 1 509 kb/s
Channel(s) : 6 channels
Channel positions : Front: L C R, Side: L R, LFE
Sampling rate : 48.0 kHz
Frame rate : 93.750 FPS (512 SPF)
Bit depth : 24 bits
Compression mode : Lossy
Stream size : 963 MiB (14%)
Language : English
Default : Yes
Forced : No

Text
ID : 4
Format : UTF-8
Codec ID : S_TEXT/UTF8
Codec ID/Info : UTF-8 Plain Text
Title : Forced
Language : German
Default : Yes
Forced : No

Menu
00:00:00.000 : en:00:00:00.000
00:04:40.864 : en:00:04:40.864
00:09:03.543 : en:00:09:03.543
00:14:58.648 : en:00:14:58.648
00:18:53.215 : en:00:18:53.215
00:25:10.259 : en:00:25:10.259
00:29:07.204 : en:00:29:07.204
00:33:05.817 : en:00:33:05.817
00:39:11.975 : en:00:39:11.975
00:41:38.996 : en:00:41:38.996
00:43:42.328 : en:00:43:42.328
00:50:50.839 : en:00:50:50.839
00:55:35.916 : en:00:55:35.916
00:59:46.458 : en:00:59:46.458
01:03:12.998 : en:01:03:12.998
01:09:06.184 : en:01:09:06.184
01:16:28.918 : en:01:16:28.918
01:20:38.834 : en:01:20:38.834
01:24:12.089 : en:01:24:12.089
01:26:17.339 : en:01:26:17.339





Duell (1971)


Duell (1971)


Duell (1971)


Duell (1971)


Duell (1971)