Dreams Don't Die (1982)

Dreams Don't Die (1982)

Dreams Don't Die (1982)
WEB-DL | MKV | 1920x1080 | English | H264 @ 10000 kbps | E-AC-3 @ 224 kbps | 1 h 34 min | 6.66 GiB
Subtitles: English
Genre: Drama, Thriller

Two young kids in love, one young graffiti artist and the other a foster-child, find trouble on the mean streets on the other side of the river in New York City. Officer Charles Banks finds young Danny tagging subway cars and then catches Teiresa selling drugs for another mislead teen, Kirk. The officer, instead of turning both of them in, gives both teens a chance to make more of their lives together. Changing their ways turns out to be more challenging than first thought.

Dreams.Dont.Die.1982.1080p.AMZN.WEB-DL.DDP2.0.H.264-monkee.mkv (6.7 GB)
Dreams.Dont.Die.1982.720p.AMZN.WEB-DL.DDP2.0.H.264-monkee.mkv (4.1 GB)



General
Unique ID : 218991791077982180628138898310593008657 (0xA4C048E8BB61F5FFB2287F19569C5411)
Complete name : ./Dreams.Dont.Die.1982.1080p.AMZN.WEB-DL.DDP2.0.H.264-monkee.mkv
Format : Matroska
Format version : Version 4 / Version 2
File size : 6.66 GiB
Duration : 1 h 34 min
Overall bit rate : 10.1 Mb/s
Encoded date : UTC 2019-09-08 01:41:05
Writing application : mkvmerge v13.0.0 ('The Juggler') 64bit
Writing library : libebml v1.3.4 + libmatroska v1.4.5

Video
ID : 1
Format : AVC
Format/Info : Advanced Video Codec
Format profile : High@L4
Format settings : CABAC / 4 Ref Frames
Format settings, CABAC : Yes
Format settings, RefFrames : 4 frames
Codec ID : V_MPEG4/ISO/AVC
Duration : 1 h 34 min
Bit rate mode : Constant
Bit rate : 10 000 kb/s
Width : 1 920 pixels
Height : 1 080 pixels
Display aspect ratio : 16:9
Frame rate mode : Constant
Frame rate : 24.000 FPS
Color space : YUV
Chroma subsampling : 4:2:0
Bit depth : 8 bits
Scan type : Progressive
Bits/(Pixel*Frame) : 0.201
Stream size : 6.51 GiB (98%)
Default : Yes
Forced : No
Color range : Limited
Color primaries : BT.709
Transfer characteristics : BT.709
Matrix coefficients : BT.709

Audio
ID : 2
Format : E-AC-3
Format/Info : Enhanced Audio Coding 3
Format settings, Endianness : Big
Codec ID : A_EAC3
Duration : 1 h 34 min
Bit rate mode : Constant
Bit rate : 224 kb/s
Channel(s) : 2 channels
Channel positions : Front: L R
Sampling rate : 48.0 kHz
Frame rate : 187.500 FPS (256 SPF)
Compression mode : Lossy
Stream size : 152 MiB (2%)
Language : English
Service kind : Complete Main
Default : Yes
Forced : No

Text #1
ID : 3
Format : UTF-8
Codec ID : S_TEXT/UTF8
Codec ID/Info : UTF-8 Plain Text
Duration : 1 h 34 min
Bit rate : 55 b/s
Count of elements : 1486
Stream size : 38.3 KiB (0%)
Language : English
Default : No
Forced : No

Text #2
ID : 4
Format : UTF-8
Codec ID : S_TEXT/UTF8
Codec ID/Info : UTF-8 Plain Text
Duration : 1 h 34 min
Bit rate : 56 b/s
Count of elements : 1487
Stream size : 38.8 KiB (0%)
Title : SDH
Language : English
Default : No
Forced : No





Dreams Don't Die (1982)


Dreams Don't Die (1982)


Dreams Don't Die (1982)


Dreams Don't Die (1982)


Dreams Don't Die (1982)