Downhill (1927)

Downhill (1927)

Downhill (1927)
BDRip | MKV | 1456x1080 | English | H264 @ 9678 kbps | AC-3 @ 192 kbps | 1 h 50 min | 7.65 GiB
Genre: Drama

After public school student Roddy Berwick takes the blame for a friend's transgression and is expelled, his life goes downhill.

ea8c07a59b6273cb486e4197332fcde8.mkv (7.7 GB)



General
Unique ID : 208780296834035068437644108879212905698 (0x9D119F5F3EB4128C8767E013A15D04E2)
Complete name : ./ea8c07a59b6273cb486e4197332fcde8.mkv
Format : Matroska
Format version : Version 4 / Version 2
File size : 7.65 GiB
Duration : 1 h 50 min
Overall bit rate : 9 871 kb/s
Encoded date : UTC 2020-01-10 12:12:09
Writing application : mkvmerge v8.3.0 ('Over the Horizon') 64bit
Writing library : libebml v1.3.1 + libmatroska v1.4.2

Video
ID : 1
Format : AVC
Format/Info : Advanced Video Codec
Format profile : High@L4.1
Format settings : CABAC / 4 Ref Frames
Format settings, CABAC : Yes
Format settings, RefFrames : 4 frames
Codec ID : V_MPEG4/ISO/AVC
Duration : 1 h 50 min
Bit rate : 9 678 kb/s
Width : 1 456 pixels
Height : 1 080 pixels
Display aspect ratio : 4:3
Frame rate mode : Constant
Frame rate : 19.181 FPS
Color space : YUV
Chroma subsampling : 4:2:0
Bit depth : 8 bits
Scan type : Progressive
Bits/(Pixel*Frame) : 0.321
Stream size : 7.50 GiB (98%)
Writing library : x264 core 157 r2969 d4099dd
Encoding settings : cabac=1 / ref=4 / deblock=1:-3:-3 / analyse=0x3:0x133 / me=umh / subme=9 / psy=1 / psy_rd=1.00:0.00 / mixed_ref=1 / me_range=16 / chroma_me=1 / trellis=2 / 8x8dct=1 / cqm=0 / deadzone=21,11 / fast_pskip=0 / chroma_qp_offset=-2 / threads=18 / lookahead_threads=1 / sliced_threads=0 / nr=0 / decimate=1 / interlaced=0 / bluray_compat=0 / constrained_intra=0 / bframes=3 / b_pyramid=2 / b_adapt=1 / b_bias=0 / direct=3 / weightb=1 / open_gop=0 / weightp=2 / keyint=200 / keyint_min=20 / scenecut=40 / intra_refresh=0 / rc_lookahead=50 / rc=2pass / mbtree=1 / bitrate=9678 / ratetol=1.0 / qcomp=0.60 / qpmin=0 / qpmax=69 / qpstep=4 / cplxblur=20.0 / qblur=0.5 / ip_ratio=1.40 / aq=1:1.00
Language : English
Default : Yes
Forced : No

Audio
ID : 2
Format : AC-3
Format/Info : Audio Coding 3
Format settings, Endianness : Big
Codec ID : A_AC3
Duration : 1 h 50 min
Bit rate mode : Constant
Bit rate : 192 kb/s
Channel(s) : 2 channels
Channel positions : Front: L R
Sampling rate : 48.0 kHz
Frame rate : 31.250 FPS (1536 SPF)
Bit depth : 16 bits
Compression mode : Lossy
Stream size : 152 MiB (2%)
Service kind : Complete Main
Default : Yes
Forced : No

Menu
00:00:00.000 : en:00:00:00.000
00:12:00.511 : en:00:12:00.511
00:21:10.853 : en:00:21:10.853
00:34:27.816 : en:00:34:27.816
00:46:15.398 : en:00:46:15.398
00:55:48.220 : en:00:55:48.220
01:07:49.774 : en:01:07:49.774
01:14:46.357 : en:01:14:46.357
01:26:56.128 : en:01:26:56.128
01:34:01.469 : en:01:34:01.469
01:43:46.429 : en:01:43:46.429





Downhill (1927)


Downhill (1927)


Downhill (1927)


Downhill (1927)


Downhill (1927)