Down Argentine Way (1940)

Down Argentine Way (1940)

Down Argentine Way (1940)
WEBRip 1080p | MP4 | 1 h 28 min | 1.69 GB | 1440x1080 | AVC@2500 kb/s
English AAC@224 kb/s, 2 ch
WEB-DL 1080p | MKV | 1 h 28 min | 6.84 GB | 1440x1080 | AVC@10.6 Mb/s
English AC3@224 kb/s, 2 ch | English AC3@192 kb/s, 2 ch (Commentary)
Subs: English
Genre: Comedy, Drama, Musical

An American girl on vacation in Argentina falls for a wealthy racehorse owner.



General
Down.Argentine.Way.1940.1080p.WEBRip.x264.mp4
Format : MPEG-4
Format profile : Base Media
Codec ID : isom (isom/iso2/avc1/mp41)
File size : 1.69 GB
Duration : 1 h 28 min
Overall bit rate : 2730 kb/s
Encoded date : UTC 2021-02-28 15:00:40
Tagged date : UTC 2021-02-28 15:00:40
Writing application : Lavf58.20.100

Video
ID : 1
Format : AVC
Format/Info : Advanced Video Codec
Format profile : High@L4.1
Format settings, CABAC : Yes
Format settings, ReFrames : 4 frames
Codec ID : avc1
Codec ID/Info : Advanced Video Coding
Duration : 1 h 28 min
Bit rate : 2500 kb/s
Width : 1440 pixels
Height : 1080 pixels
Display aspect ratio : 4:3
Frame rate mode : Constant
Frame rate : 23.976 (23976/1000) FPS
Color space : YUV
Chroma subsampling : 4:2:0
Bit depth : 8 bits
Scan type : Progressive
Bits/(Pixel*Frame) : 0.067
Stream size : 1.55 GB (92%)
Writing library : x264 core 152 r2851M ba24899
Encoding settings : cabac=1 / ref=4 / deblock=1:-1:-1 / analyse=0x3:0x113 / me=umh / subme=9 / psy=1 / psy_rd=1.00:0.15 / mixed_ref=1 / me_range=24 / chroma_me=1 / trellis=2 / 8x8dct=1 / cqm=0 / deadzone=21,11 / fast_pskip=1 / chroma_qp_offset=-3 / threads=16 / lookahead_threads=4 / sliced_threads=0 / nr=0 / decimate=1 / interlaced=0 / bluray_compat=0 / constrained_intra=0 / bframes=3 / b_pyramid=2 / b_adapt=2 / b_bias=0 / direct=3 / weightb=1 / open_gop=0 / weightp=2 / keyint=250 / keyint_min=25 / scenecut=40 / intra_refresh=0 / rc_lookahead=50 / rc=2pass / mbtree=1 / bitrate=2500 / ratetol=1.0 / qcomp=0.60 / qpmin=0 / qpmax=69 / qpstep=4 / cplxblur=20.0 / qblur=0.5 / vbv_maxrate=31250 / vbv_bufsize=31250 / nal_hrd=none / filler=0 / ip_ratio=1.40 / aq=3:1.00
Encoded date : UTC 2021-02-28 15:00:40
Tagged date : UTC 2021-02-28 15:00:40

Audio
ID : 2
Format : AAC
Format/Info : Advanced Audio Codec
Format profile : LC
Codec ID : 40
Duration : 1 h 28 min
Duration_LastFrame : -11 ms
Bit rate mode : Constant
Bit rate : 224 kb/s
Channel(s) : 2 channels
Channel positions : Front: L R
Sampling rate : 48.0 kHz
Frame rate : 46.875 FPS (1024 spf)
Compression mode : Lossy
Stream size : 142 MB (8%)
Language : English
Default : Yes
Alternate group : 1
Encoded date : UTC 2021-02-28 15:00:40
Tagged date : UTC 2021-02-28 15:00:40


General
Down.Argentine.Way.1940.1080p.WEB-DL.DD+2.0.H.264-SbR.mkv
Format : Matroska
Format version : Version 4 / Version 2
File size : 6.84 GB
Duration : 1 h 28 min
Overall bit rate mode : Variable
Overall bit rate : 11.0 Mb/s
Encoded date : UTC 2021-02-27 21:32:26
Writing application : mkvmerge v54.0.0 ('F Maj Pixie') 64-bit
Writing library : libebml v1.4.2 + libmatroska v1.6.3
Cover : Yes
Attachments : cover.jpg

Video
ID : 1
Format : AVC
Format/Info : Advanced Video Codec
Format profile : High@L4
Format settings, CABAC : Yes
Format settings, ReFrames : 4 frames
Codec ID : V_MPEG4/ISO/AVC
Duration : 1 h 28 min
Bit rate mode : Variable
Bit rate : 10.6 Mb/s
Maximum bit rate : 15.0 Mb/s
Width : 1440 pixels
Height : 1080 pixels
Display aspect ratio : 4:3
Frame rate mode : Constant
Frame rate : 23.976 (24000/1001) FPS
Color space : YUV
Chroma subsampling : 4:2:0
Bit depth : 8 bits
Scan type : Progressive
Bits/(Pixel*Frame) : 0.285
Stream size : 6.58 GB (96%)
Language : English
Default : Yes
Forced : No
Color range : Limited
Color primaries : BT.709
Transfer characteristics : BT.709
Matrix coefficients : BT.709

Audio #1
ID : 2
Format : E-AC-3
Format/Info : Enhanced Audio Coding 3
Format settings, Endianness : Big
Codec ID : A_EAC3
Duration : 1 h 28 min
Bit rate mode : Constant
Bit rate : 224 kb/s
Channel(s) : 2 channels
Channel positions : Front: L R
Sampling rate : 48.0 kHz
Frame rate : 187.500 FPS (256 spf)
Compression mode : Lossy
Stream size : 142 MB (2%)
Language : English
Default : Yes
Forced : No

Audio #2
ID : 3
Format : AC-3
Format/Info : Audio Coding 3
Mode extension : C (commentary)
Format settings, Endianness : Big
Codec ID : A_AC3
Duration : 1 h 28 min
Bit rate mode : Constant
Bit rate : 192 kb/s
Channel(s) : 2 channels
Channel positions : Front: L R
Sampling rate : 48.0 kHz
Frame rate : 31.250 FPS (1536 spf)
Bit depth : 16 bits
Compression mode : Lossy
Stream size : 122 MB (2%)
Title : Commentary by film historian Sylvia Stoddard
Language : English
Default : No
Forced : No

Text #1
ID : 4
Format : UTF-8
Codec ID : S_TEXT/UTF8
Codec ID/Info : UTF-8 Plain Text
Duration : 1 h 24 min
Bit rate : 71 b/s
Count of elements : 1035
Stream size : 44.0 KiB (0%)
Language : English
Default : No
Forced : No

Text #2
ID : 5
Format : UTF-8
Codec ID : S_TEXT/UTF8
Codec ID/Info : UTF-8 Plain Text
Duration : 1 h 27 min
Bit rate : 76 b/s
Count of elements : 1196
Stream size : 49.2 KiB (0%)
Title : SDH_D
Language : English
Default : No
Forced : No

Text #3
ID : 6
Format : UTF-8
Codec ID : S_TEXT/UTF8
Codec ID/Info : UTF-8 Plain Text
Duration : 1 h 27 min
Bit rate : 75 b/s
Count of elements : 1169
Stream size : 48.8 KiB (0%)
Title : SDH_W
Language : English
Default : No
Forced : No

Menu
00:00:00.000 : en:01. Main Titles
00:01:25.085 : en:02. South American Way
00:03:05.185 : en:03. The Telegram
00:06:04.449 : en:04. Selling Carmelita
00:09:15.388 : en:05. Down Argentina Way
00:14:04.844 : en:06. An Imperfect Ending to a Perfect Day
00:17:48.609 : en:07. Broken Promise
00:20:22.471 : en:08. In Buenos Aires
00:28:34.296 : en:09. Down Argentina Way
00:32:23.567 : en:10. Nenita/Dancing
00:38:04.365 : en:11. Mama Yo Quiero
00:40:33.014 : en:12. Bambu, Bambu
00:42:07.066 : en:13. Rendezvous with Ricardo
00:46:57.523 : en:14. The Quintana Ranch
00:53:33.877 : en:15. Sing to Your Señorita, Sing
00:57:22.522 : en:16. Casino's Mistake
01:01:57.923 : en:17. Two Dreams Met
01:06:00.874 : en:18. Furioso's Confusion
01:07:31.047 : en:19. The Secrets Are Out
01:11:16.439 : en:20. At the Hotel Suite
01:13:32.241 : en:21. Argentine Handicap
01:18:07.516 : en:22. The Big Win
01:23:40.474 : en:23. Burying the Hatchet
01:25:41.136 : en:24. Finale/End Titles



WEBRip 1080p Screenshots

Down Argentine Way (1940)

Down Argentine Way (1940)

Down Argentine Way (1940)


WEB-DL 1080p Screenshots

Down Argentine Way (1940)

Down Argentine Way (1940)

Down Argentine Way (1940)


Come Visit My Blog (•‿•)