Deluge (1933)

Deluge (1933)

Deluge (1933)
BDRip 720p | MKV | 1008x720 | AVC@4441 kb/s | English FLAC@261 kb/s
2 channels | 1 h 6 min | 2.17 GB
Genre: Drama, Sci-Fi

A massive earthquake strikes the United States, which destroys the West Coast and unleashes a massive flood that threatens to destroy the East Coast as well.



General
Complete name : Deluge.1933.720p.BluRay.x264-SADPANDA\Deluge.1933.720p.BluRay.x264-SADPANDA.mkv
Format : Matroska
Format version : Version 4 / Version 2
File size : 2.18 GiB
Duration : 1 h 6 min
Overall bit rate mode : Variable
Overall bit rate : 4 704 kb/s
Encoded date : UTC 2017-04-10 14:13:24
Writing application : mkvmerge v10.0.0 ('To Drown In You') 64bit
Writing library : libebml v1.3.4 + libmatroska v1.4.5

Video
ID : 1
Format : AVC
Format/Info : Advanced Video Codec
Format profile : High@L4.1
Format settings, CABAC : Yes
Format settings, ReFrames : 5 frames
Codec ID : V_MPEG4/ISO/AVC
Duration : 1 h 6 min
Bit rate : 4 441 kb/s
Width : 1 008 pixels
Height : 720 pixels
Display aspect ratio : 1.400
Frame rate mode : Constant
Frame rate : 23.976 (24000/1001) FPS
Color space : YUV
Chroma subsampling : 4:2:0
Bit depth : 8 bits
Scan type : Progressive
Bits/(Pixel*Frame) : 0.255
Stream size : 2.06 GiB (94%)
Writing library : x264 core 148 r2744 b97ae06
Encoding settings : cabac=1 / ref=5 / deblock=1:-3:-3 / analyse=0x3:0x113 / me=umh / subme=8 / psy=1 / psy_rd=1.00:0.25 / mixed_ref=1 / me_range=24 / chroma_me=1 / trellis=1 / 8x8dct=1 / cqm=0 / deadzone=21,11 / fast_pskip=1 / chroma_qp_offset=-4 / threads=22 / lookahead_threads=3 / sliced_threads=0 / nr=0 / decimate=1 / interlaced=0 / bluray_compat=0 / constrained_intra=0 / bframes=3 / b_pyramid=2 / b_adapt=1 / b_bias=0 / direct=3 / weightb=1 / open_gop=0 / weightp=2 / keyint=240 / keyint_min=24 / scenecut=40 / intra_refresh=0 / rc_lookahead=50 / rc=2pass / mbtree=1 / bitrate=4441 / ratetol=1.0 / qcomp=0.60 / qpmin=0 / qpmax=69 / qpstep=4 / cplxblur=20.0 / qblur=0.5 / ip_ratio=1.40 / aq=1:0.75
Default : Yes
Forced : No

Audio
ID : 2
Format : FLAC
Format/Info : Free Lossless Audio Codec
Codec ID : A_FLAC
Duration : 1 h 6 min
Bit rate mode : Variable
Bit rate : 261 kb/s
Channel(s) : 2 channels
Channel positions : Front: L R
Sampling rate : 48.0 kHz
Frame rate : 11.719 FPS (4096 spf)
Bit depth : 16 bits
Stream size : 124 MiB (6%)
Writing library : libFLAC 1.2.1 (UTC 2007-09-17)
Language : English
Default : Yes
Forced : No

Menu
00:00:00.000 : en:00:00:00.000
00:08:30.718 : en:00:08:30.718
00:17:02.645 : en:00:17:02.645
00:25:46.920 : en:00:25:46.920
00:34:05.210 : en:00:34:05.210
00:43:09.796 : en:00:43:09.796
00:52:24.975 : en:00:52:24.975
00:57:45.087 : en:00:57:45.087
01:04:50.094 : en:01:04:50.094


BDRip 720p Screenshots

Deluge (1933)

Deluge (1933)

Deluge (1933)


Come Visit My Blog (•‿•)