Death Wish 4: The Crackdown (1987)

Death Wish 4: The Crackdown (1987)

Death Wish 4: The Crackdown (1987)
BDRip 1080p | MKV | 1920x1048 | AVC@9000 kb/s | English AC3@448 kb/s
Subs: English | 1 channel | 1 h 39 min | 6.58 GB
Genre: Action, Crime, Drama

Architect/vigilante Paul Kersey takes on the members of a vicious Los Angeles drug cartel to stop the flow of drugs after his girlfriend's daughter dies from an overdose.



General
Death.Wish.4.The.Crackdown.1987.1080p.BluRay.x264.DD1.0-FGT\Death.Wish.4.The.Crackdown.1987.1080p.BluRay.x264.DD1.0-FGT.mkv
Format : Matroska
Format version : Version 4 / Version 2
File size : 6.58 GiB
Duration : 1 h 39 min
Overall bit rate : 9 455 kb/s
Movie name : Death.Wish.4.The.Crackdown.1987.1080p.BluRay.x264.DD1.0-FGT
Encoded date : UTC 2015-11-29 12:45:08
Writing application : mkvmerge v8.3.0 ('Over the Horizon') 64bit
Writing library : libebml v1.3.1 + libmatroska v1.4.2
Cover : Yes
Attachments : cover_land.jpg / small_cover.jpg / small_cover_land.jpg / cover.jpg

Video
ID : 1
Format : AVC
Format/Info : Advanced Video Codec
Format profile : High@L4.1
Format settings, CABAC : Yes
Format settings, ReFrames : 4 frames
Codec ID : V_MPEG4/ISO/AVC
Duration : 1 h 39 min
Bit rate : 9 000 kb/s
Width : 1 920 pixels
Height : 1 048 pixels
Display aspect ratio : 1.85:1
Frame rate mode : Constant
Frame rate : 23.976 (24000/1001) FPS
Color space : YUV
Chroma subsampling : 4:2:0
Bit depth : 8 bits
Scan type : Progressive
Bits/(Pixel*Frame) : 0.187
Stream size : 6.14 GiB (93%)
Writing library : x264 core 130 r2274bm c832fe9
Encoding settings : cabac=1 / ref=4 / deblock=1:0:0 / analyse=0x3:0x113 / me=umh / subme=8 / psy=1 / psy_rd=1.00:0.00 / mixed_ref=1 / me_range=16 / chroma_me=1 / trellis=1 / 8x8dct=1 / cqm=0 / deadzone=21,11 / fast_pskip=1 / chroma_qp_offset=-2 / threads=12 / lookahead_threads=2 / sliced_threads=0 / nr=0 / decimate=1 / interlaced=0 / bluray_compat=0 / constrained_intra=0 / bframes=3 / b_pyramid=2 / b_adapt=2 / b_bias=0 / direct=3 / weightb=1 / open_gop=0 / weightp=2 / keyint=250 / keyint_min=23 / scenecut=40 / intra_refresh=0 / rc_lookahead=50 / rc=2pass / mbtree=1 / bitrate=9000 / ratetol=1.0 / qcomp=0.60 / qpmin=0 / qpmax=69 / qpstep=4 / cplxblur=20.0 / qblur=0.5 / ip_ratio=1.40 / aq=1:1.00
Language : English
Default : Yes
Forced : No

Audio
ID : 2
Format : AC-3
Format/Info : Audio Coding 3
Mode extension : CM (complete main)
Format settings, Endianness : Big
Codec ID : A_AC3
Duration : 1 h 39 min
Bit rate mode : Constant
Bit rate : 448 kb/s
Channel(s) : 1 channel
Channel positions : Front: C
Sampling rate : 48.0 kHz
Frame rate : 31.250 FPS (1536 spf)
Bit depth : 16 bits
Compression mode : Lossy
Stream size : 319 MiB (5%)
Language : English
Default : Yes
Forced : No

Text
ID : 3
Format : PGS
Muxing mode : zlib
Codec ID : S_HDMV/PGS
Codec ID/Info : Picture based subtitle format used on BDs/HD-DVDs
Title : SDh
Language : English
Default : No
Forced : No

Menu
00:00:00.000 : en:Chapter 1
00:06:03.738 : en:Chapter 2
00:11:57.006 : en:Chapter 3
00:18:10.047 : en:Chapter 4
00:24:20.916 : en:Chapter 5
00:30:42.465 : en:Chapter 6
00:36:42.408 : en:Chapter 7
00:41:44.335 : en:Chapter 8
00:48:30.073 : en:Chapter 9
00:53:10.145 : en:Chapter 10
00:58:56.366 : en:Chapter 11
01:05:55.034 : en:Chapter 12
01:12:09.158 : en:Chapter 13
01:19:21.631 : en:Chapter 14
01:26:15.795 : en:Chapter 15
01:31:32.278 : en:Chapter 16


BDRip 1080p Screenshots

Death Wish 4: The Crackdown (1987)

Death Wish 4: The Crackdown (1987)

Death Wish 4: The Crackdown (1987)

Death Wish 4: The Crackdown (1987)

Death Wish 4: The Crackdown (1987)

Death Wish 4: The Crackdown (1987)

Death Wish 4: The Crackdown (1987)


Come Visit My Blog (•‿•)