Cromwell (1970)

Cromwell (1970)

Cromwell (1970)
BRRip | AVI | 720x300 | XviD@1599 kb/s | English MP3@192 kb/s | 2 channels | 2 h 19 min | 1.75 GB
BDRip 1080p | MKV | 1920x800 | AVC@6972 kb/s | English DTS@768 kb/s | 2 channels | 2 h 19 min | 7.70 GB
Genre: Biography, Drama, History

Oliver Cromwell can no longer tolerate King Charles' policies and the self-interest of the ruling class and leads a civil war to install Parliament as the ultimate ruler of England.

IMDB - Won 1 Oscar. Another 1 win & 5 nominations


General
Complete name : Cromwell.1970.BRRip.XviD.MP3-RARBG\Cromwell.1970.BRRip.XviD.MP3-RARBG.avi
Format : AVI
Format/Info : Audio Video Interleave
Format profile : OpenDML
File size : 1.76 GiB
Duration : 2 h 19 min
Overall bit rate : 1 805 kb/s
Writing application : Lavf56.40.101

Video
ID : 0
Format : MPEG-4 Visual
Format profile : Simple@L5
Format settings, BVOP : No
Format settings, QPel : No
Format settings, GMC : No warppoints
Format settings, Matrix : Default (H.263)
Codec ID : XVID
Codec ID/Hint : XviD
Duration : 2 h 19 min
Bit rate : 1 599 kb/s
Width : 720 pixels
Height : 300 pixels
Display aspect ratio : 2.40:1
Frame rate : 23.976 (24000/1001) FPS
Color space : YUV
Chroma subsampling : 4:2:0
Bit depth : 8 bits
Scan type : Progressive
Compression mode : Lossy
Bits/(Pixel*Frame) : 0.309
Stream size : 1.56 GiB (89%)
Writing library : Lavc56.60.100

Audio
ID : 1
Format : MPEG Audio
Format version : Version 1
Format profile : Layer 3
Mode : Joint stereo
Mode extension : MS Stereo
Codec ID : 55
Codec ID/Hint : MP3
Duration : 2 h 19 min
Bit rate mode : Constant
Bit rate : 192 kb/s
Channel(s) : 2 channels
Sampling rate : 48.0 kHz
Compression mode : Lossy
Stream size : 192 MiB (11%)
Alignment : Aligned on interleaves
Interleave, duration : 24 ms (0.58 video frame)
Interleave, preload duration : 24 ms
Writing library : LAME3.99.5

General
Unique ID : 193931536366919018504363183522302845649 (0x91E5DAF544D9D640871C561D1E42E2D1)
Complete name : Cromwell.1970.1080p.BluRay.x264.DTS-FGT\Cromwell.1970.1080p.BluRay.x264.DTS-FGT.mkv
Format : Matroska
Format version : Version 4 / Version 2
File size : 7.70 GiB
Duration : 2 h 19 min
Overall bit rate : 7 897 kb/s
Movie name : Cromwell.1970.1080p.BluRay.x264.DTS-FGT
Encoded date : UTC 2017-03-05 13:10:56
Writing application : mkvmerge v9.9.0 ('Pick Up') 64bit
Writing library : libebml v1.3.4 + libmatroska v1.4.5
Cover : Yes
Attachments : cover_land.jpg / small_cover.jpg / small_cover_land.jpg / cover.jpg

Video
ID : 1
Format : AVC
Format/Info : Advanced Video Codec
Format profile : High@L4.1
Format settings, CABAC : Yes
Format settings, ReFrames : 5 frames
Codec ID : V_MPEG4/ISO/AVC
Duration : 2 h 19 min
Bit rate : 6 972 kb/s
Width : 1 920 pixels
Height : 800 pixels
Display aspect ratio : 2.40:1
Frame rate mode : Constant
Frame rate : 23.976 (24000/1001) FPS
Color space : YUV
Chroma subsampling : 4:2:0
Bit depth : 8 bits
Scan type : Progressive
Bits/(Pixel*Frame) : 0.189
Stream size : 6.80 GiB (88%)
Writing library : x264 core 148 r2744 b97ae06
Encoding settings : cabac=1 / ref=5 / deblock=1:-1:-1 / analyse=0x3:0x113 / me=umh / subme=7 / psy=1 / psy_rd=1.00:0.15 / mixed_ref=1 / me_range=16 / chroma_me=1 / trellis=1 / 8x8dct=1 / cqm=0 / deadzone=21,11 / fast_pskip=0 / chroma_qp_offset=-3 / threads=25 / lookahead_threads=4 / sliced_threads=0 / nr=0 / decimate=1 / interlaced=0 / bluray_compat=0 / constrained_intra=0 / bframes=3 / b_pyramid=2 / b_adapt=1 / b_bias=0 / direct=1 / weightb=1 / open_gop=0 / weightp=2 / keyint=250 / keyint_min=23 / scenecut=40 / intra_refresh=0 / rc_lookahead=40 / rc=crf / mbtree=1 / crf=20.0 / qcomp=0.60 / qpmin=0 / qpmax=69 / qpstep=4 / ip_ratio=1.40 / aq=1:1.00
Language : English
Default : Yes
Forced : No

Audio
ID : 2
Format : DTS
Format/Info : Digital Theater Systems
Mode : 16
Format settings, Endianness : Big
Codec ID : A_DTS
Duration : 2 h 19 min
Bit rate mode : Constant
Bit rate : 768 kb/s
Channel(s) : 2 channels
Channel positions : Front: L R
Sampling rate : 48.0 kHz
Frame rate : 93.750 FPS (512 spf)
Bit depth : 24 bits
Compression mode : Lossy
Stream size : 767 MiB (10%)
Language : English
Default : Yes
Forced : No

Menu
00:00:00.000 : en:00:00:00.000
00:03:32.087 : en:00:03:32.087
00:18:49.211 : en:00:18:49.211
00:26:49.775 : en:00:26:49.775
00:40:40.021 : en:00:40:40.021
00:57:12.596 : en:00:57:12.596
01:10:13.126 : en:01:10:13.126
01:24:23.141 : en:01:24:23.141
01:39:07.024 : en:01:39:07.024
01:51:08.745 : en:01:51:08.745
02:04:45.478 : en:02:04:45.478


BRRip Screenshots

Cromwell (1970)

Cromwell (1970)

Cromwell (1970)


BDRip 1080p Screenshots

Cromwell (1970)

Cromwell (1970)

Cromwell (1970)


Come Visit My Blog (•‿•)