Come September (1961)

Come September (1961)

Come September (1961)
WEB-DL 1080p | MKV | 1 h 53 min | 11.9 GB | 1920x816 | AVC@14.8 Mb/s
English AC3@224 kb/s, 2 ch
Subs: English
Genre: Comedy, Romance

Younger generation vs. "older" folks on vacation at an Italian villa.

IMDB - Won 1 Golden Globe. Another 1 win & 1 nomination.


General
Come.September.1961.1080p.WEB-DL.DD+2.0.H.264-SbR.mkv
Format : Matroska
Format version : Version 2
File size : 11.9 GB
Duration : 1 h 53 min
Overall bit rate mode : Variable
Overall bit rate : 15.0 Mb/s
Encoded date : UTC 2017-08-31 19:11:42
Writing application : mkvmerge v15.0.0 ('Duel with the Devil') 64-bit
Writing library : libebml v1.3.5 + libmatroska v1.4.5
Cover : Yes
Attachments : cover.jpg

Video
ID : 1
Format : AVC
Format/Info : Advanced Video Codec
Format profile : High@L4
Format settings, CABAC : Yes
Format settings, ReFrames : 4 frames
Codec ID : V_MPEG4/ISO/AVC
Duration : 1 h 53 min
Bit rate mode : Variable
Bit rate : 14.8 Mb/s
Maximum bit rate : 15.0 Mb/s
Width : 1920 pixels
Height : 816 pixels
Display aspect ratio : 2.35:1
Frame rate mode : Constant
Frame rate : 23.976 (24000/1001) FPS
Color space : YUV
Chroma subsampling : 4:2:0
Bit depth : 8 bits
Scan type : Progressive
Bits/(Pixel*Frame) : 0.394
Stream size : 11.7 GB (98%)
Language : English
Default : Yes
Forced : No
Color range : Limited
Color primaries : BT.709
Transfer characteristics : BT.709
Matrix coefficients : BT.709

Audio
ID : 2
Format : E-AC-3
Format/Info : Enhanced Audio Coding 3
Format settings, Endianness : Big
Codec ID : A_EAC3
Duration : 1 h 53 min
Bit rate mode : Constant
Bit rate : 224 kb/s
Channel(s) : 2 channels
Channel positions : Front: L R
Sampling rate : 48.0 kHz
Frame rate : 187.500 FPS (256 spf)
Compression mode : Lossy
Stream size : 182 MB (1%)
Language : English
Default : Yes
Forced : No

Text #1
ID : 3
Format : UTF-8
Codec ID : S_TEXT/UTF8
Codec ID/Info : UTF-8 Plain Text
Duration : 1 h 49 min
Bit rate : 60 b/s
Count of elements : 1271
Stream size : 48.8 KiB (0%)
Language : English
Default : No
Forced : No

Text #2
ID : 4
Format : UTF-8
Codec ID : S_TEXT/UTF8
Codec ID/Info : UTF-8 Plain Text
Duration : 1 h 52 min
Bit rate : 62 b/s
Count of elements : 1677
Stream size : 51.4 KiB (0%)
Title : SDH
Language : English
Default : No
Forced : No

Menu
00:00:00.000 : en:01. Main Titles
00:02:57.365 : en:02. Her Annual Lover
00:09:36.097 : en:03. College Boys
00:13:08.184 : en:04. More Than A Villa
00:23:02.152 : en:05. Help From Sandy
00:27:30.587 : en:06. Dumping the Major Domo
00:31:07.345 : en:07. Lisa's Arrival
00:41:01.939 : en:08. Talbot Pops His Cork
00:45:22.491 : en:09. Canceled Reservations
00:53:20.760 : en:10. A Ride in the Country
01:02:50.955 : en:11. Multiplication
01:07:28.607 : en:12. Just a Few Drinks
01:17:27.080 : en:13. High Standards
01:22:51.446 : en:14. The Morning After
01:28:14.811 : en:15. Lemmings
01:30:51.717 : en:16. Going After Lisa
01:35:25.449 : en:17. The Car Thief
01:38:37.516 : en:18. The Thief's Accomplice
01:47:06.775 : en:19. Talbot's Bride
01:51:27.869 : en:20. The New Guests



WEB-DL 1080p Screenshots

Come September (1961)

Come September (1961)

Come September (1961)

Come September (1961)

Come September (1961)


Come Visit My Blog (•‿•)