Cobra (1986)

Cobra (1986)

Cobra (1986)
BDRip | MKV | 1920x1080 | English | H264 @ 13350 kbps | DTS @ 1509 kbps | 1 h 27 min | 9.03 GiB
Subtitles: English
Genre: Action, Crime, Thriller

A tough-on-crime street cop must protect the only surviving witness to a strange murderous cult with far reaching plans.

Cobra.1986.1080p.BluRay.DTS.x264-CRiSC=420fcb51ef162c65683ba36dac33bf609d82e44b.part1.rar (4.7 GB)
Cobra.1986.1080p.BluRay.DTS.x264-CRiSC=420fcb51ef162c65683ba36dac33bf609d82e44b.part2.rar (4.4 GB)



General
Unique ID : 208614982389719505361135637485464462203 (0x9CF1C8BD9C2342F8B1F9F3BF77FA237B)
Complete name : ./Cobra.1986.1080p.BluRay.DTS.x264-CRiSC.mkv
Format : Matroska
Format version : Version 2
File size : 9.03 GiB
Duration : 1 h 27 min
Overall bit rate : 14.8 Mb/s
Encoded date : UTC 2014-01-30 21:24:38
Writing application : mkvmerge v5.7.0 ('The Whirlwind') built on Jul 8 2012 20:08:51
Writing library : libebml v1.2.3 + libmatroska v1.3.0

Video
ID : 1
Format : AVC
Format/Info : Advanced Video Codec
Format profile : High@L4.1
Format settings : CABAC / 4 Ref Frames
Format settings, CABAC : Yes
Format settings, RefFrames : 4 frames
Codec ID : V_MPEG4/ISO/AVC
Duration : 1 h 27 min
Bit rate : 13.4 Mb/s
Width : 1 920 pixels
Height : 1 080 pixels
Display aspect ratio : 16:9
Frame rate mode : Constant
Frame rate : 23.976 (24000/1001) FPS
Color space : YUV
Chroma subsampling : 4:2:0
Bit depth : 8 bits
Scan type : Progressive
Bits/(Pixel*Frame) : 0.269
Stream size : 7.93 GiB (88%)
Writing library : x264 core 130 r2273 b3065e6
Encoding settings : cabac=1 / ref=4 / deblock=1:-3:-3 / analyse=0x3:0x133 / me=umh / subme=11 / psy=1 / psy_rd=1.05:0.00 / mixed_ref=1 / me_range=48 / chroma_me=1 / trellis=2 / 8x8dct=1 / cqm=0 / deadzone=21,11 / fast_pskip=0 / chroma_qp_offset=-2 / threads=12 / lookahead_threads=2 / sliced_threads=0 / nr=0 / decimate=1 / interlaced=0 / bluray_compat=0 / constrained_intra=0 / bframes=9 / b_pyramid=2 / b_adapt=2 / b_bias=0 / direct=3 / weightb=1 / open_gop=0 / weightp=2 / keyint=250 / keyint_min=23 / scenecut=40 / intra_refresh=0 / rc_lookahead=40 / rc=2pass / mbtree=0 / bitrate=13350 / ratetol=1.0 / qcomp=0.60 / qpmin=0 / qpmax=69 / qpstep=4 / cplxblur=20.0 / qblur=0.5 / vbv_maxrate=62500 / vbv_bufsize=78125 / nal_hrd=none / ip_ratio=1.40 / pb_ratio=1.30 / aq=1:0.80
Language : English
Default : Yes
Forced : No

Audio
ID : 2
Format : DTS
Format/Info : Digital Theater Systems
Mode : 16
Format settings, Endianness : Big
Codec ID : A_DTS
Duration : 1 h 27 min
Bit rate mode : Constant
Bit rate : 1 509 kb/s
Channel(s) : 6 channels
Channel positions : Front: L C R, Side: L R, LFE
Sampling rate : 48.0 kHz
Frame rate : 93.750 FPS (512 SPF)
Bit depth : 24 bits
Compression mode : Lossy
Stream size : 940 MiB (10%)
Language : English
Default : Yes
Forced : No

Text
ID : 3
Format : UTF-8
Codec ID : S_TEXT/UTF8
Codec ID/Info : UTF-8 Plain Text
Language : English
Default : No
Forced : No

Menu
00:00:00.000 : :00:00:00.000
00:05:00.000 : :00:05:00.000
00:10:00.000 : :00:10:00.000
00:15:00.000 : :00:15:00.000
00:20:00.000 : :00:20:00.000
00:25:00.000 : :00:25:00.000
00:30:00.000 : :00:30:00.000
00:35:00.000 : :00:35:00.000
00:40:00.000 : :00:40:00.000
00:45:00.000 : :00:45:00.000
00:50:00.000 : :00:50:00.000
00:55:00.000 : :00:55:00.000
01:00:00.000 : :01:00:00.000
01:05:00.000 : :01:05:00.000
01:10:00.000 : :01:10:00.000
01:15:00.000 : :01:15:00.000
01:20:00.000 : :01:20:00.000
01:25:00.000 : :01:25:00.000





Cobra (1986)


Cobra (1986)


Cobra (1986)


Cobra (1986)


Cobra (1986)